Загрузить Adobe Flash Player
Как тут качать? :: Как встать на раздачу?

Скачать / Download torrent  
Хэш: 932a532dbf8e59d32c2db1a726306acfa2b6c3c1
Добавлен: 11 мая 2014 в 15:34:05
Категория: Фильмы » Фильмы DVD
Размер: 5.70 GB
Проверил: Хозяин судьбы 11 мая 2014 в 16:06:22

Раздают: 25 Качают: 3

Беги, сука, беги! / Run! Bitch Run! (2009) DVD9

Год: 2009
Выпущено: США / Freakshow Entertainment
Жанр: Ужасы, триллер
Перевод: Любительский, одноголосый (Voiz)
Субтитры: Русские

Режиссер: Джозеф Гузман
В ролях: Ивет Корвеа, Черил Лойн, Питер Тахо, Дег Ферч, Кристина ДеРоса, Патриция Грант, Майк Турси, Ченоа Мэйсон, Крис Вейдман

О фильме:
Эротический триллер о насилии и мести в лучших традициях хоррор эротик 70-х годов. А всё происходит где-то в глубинке Америки, где жизнь показана такая убогая, зачуханная, полная противоположность голливудским красотам. И вот там есть свой мирок одной андерграунд семейки, которые не весть чем занимаются, сидят на коксе, иногда могут кого-то грохнуть ни за просто так. Однажды в их дом постучали две сестренки-христианки, которые приехали в их поселок продавать библии. Не вовремя постучались. Здесь и начинается для них реальный кошмар. Ну представьте, вполне благопристойные девицы и попадают в такую клоаку. Одна из сестренок чудом выжила, за одну ночь повзрослела и стала другим человеком…
В фильме присутствуют элементы насилия, секса и ненормативной лексики
Детям до 17 лет просмотр фильма не рекомендуется


pic

Качество: DVD-9
Формат: MPEG-2
Продолжительность: 01:22:29
Видео: PAL 16:9 (720@1024x576) VBR, 9308 Кбит/сек
Аудио: Русский, Dolby AC3, 2 ch, 192 Кбит/сек
Аудио: Англиский, Dolby AC3, 2 ch, 192 Кбит/сек
Полное имя : C:UsersСергейDownloadsРаздачиBegi.suka.begi.2009.DVD9.NovaLanVIDEO_TSVTS_01_1.VOB
Формат : MPEG-PS
Размер файла : 1024 Мбайт
Продолжительность : 14 м.
Режим общего битрейта : Переменный
Общий поток : 9889 Кбит/сек

Видео
Идентификатор : 224 (0xE0)
Формат : MPEG Video
Версия формата : Version 2
Профиль формата : Main@Main
Параметр BVOP формата : Да
Параметр матрицы формата : Выборочная
Продолжительность : 14 м.
Вид битрейта : Переменный
Битрейт : 9308 Кбит/сек
Максимальный битрейт : 9500 Кбит/сек
Ширина : 720 пикселей
Высота : 576 пикселей
Соотношение сторон : 16:9
Частота кадров : 25,000 кадров/сек
Стандарт вещания : PAL
Цветовое пространство : YUV
Субдискретизация насыщенности : 4:2:0
Битовая глубина : 8 бит
Тип развёртки : Чересстрочная
Порядок развёртки : Верхнее поле первое
Метод сжатия : С потерями
Бит/(Пиксели*Кадры) : 0.898
Размер потока : 964 Мбайт (94%)

Аудио #1
Идентификатор : 189 (0xBD)-128 (0x80)
Формат : AC-3
Формат/Информация : Audio Coding 3
Расширение режима : CM (complete main)
Параметр Endianness формата : Big
Режим смешивания : DVD-Video
Продолжительность : 14 м.
Вид битрейта : Постоянный
Битрейт : 192 Кбит/сек
Каналы : 2 канала
Расположение каналов : Front: L R
Частота : 48,0 КГц
Битовая глубина : 16 бит
Метод сжатия : С потерями
Размер потока : 19,9 Мбайт (2%)

Аудио #2
Идентификатор : 189 (0xBD)-129 (0x81)
Формат : AC-3
Формат/Информация : Audio Coding 3
Расширение режима : CM (complete main)
Параметр Endianness формата : Big
Режим смешивания : DVD-Video
Продолжительность : 14 м.
Вид битрейта : Постоянный
Битрейт : 192 Кбит/сек
Каналы : 2 канала
Расположение каналов : Front: L R
Частота : 48,0 КГц
Битовая глубина : 16 бит
Метод сжатия : С потерями
Размер потока : 19,9 Мбайт (2%)

Текст
Идентификатор : 189 (0xBD)-32 (0x20)
Формат : RLE
Формат/Информация : Run-length encoding
Режим смешивания : DVD-Video



Информация
Информация Скриншоты Пиры Скачавшие Список файлов
Залил Оценка Просмотров Скачан Файлов
Borss 0 8434311

Теги
ужасы, триллер

Похожие раздачи

Поиск не дал результатов.Больше похожих раздач →

Список комментариев
:: Не в сети Хозяин судьбы :: Информатор, Консультант :: 11 мая 2014 в 16:07:04
0
Релиз перенесён из категории Ужасы в Фильмы DVD.
Количество страниц: 1 | На страничку (строк): 20 | Всего данных: 1

Добавить комментарий
Внимание
Гости не могут оставлять комментарии, авторизуйтесь.

Панель навигации

ПОПУЛЯРНЫЕ РАЗДАЧИ
скачать торрент Ледокол (2016) WEB-DLRip | iTunesскачать торрент Доктор Стрэндж (2016) TS
скачать торрент Ледокол (2016) WEB-DL 1080p | iTunesскачать торрент Дуэлянт (2016) CAMRip
скачать торрент Отряд самоубийц (2016) BDRip 1080p | Расширeнная версия | iTunesскачать торрент Джейсон Борн (2016) HDTV 720p | Чистый звук
скачать торрент Первый мститель: Противостояние (2016) BDRip | IMAX Edition | iTunesскачать торрент Тарзан. Легенда (2016) HDRip | iTunes
скачать торрент Dark Souls 3: Deluxe Edition (2016) PC | RePack от xatabскачать торрент Люди Икс: Апокалипсис / X-Men: Apocalypse (2016) BDRip 720p | Лицензия

Будь с нами!


Наши друзья 



Информация, расположенная на данном сервере, предназначена исключительно для частного использования и не может быть загружена/перенесена на другой компьютер. Ни владелец сайта, ни хостинг-провайдер, ни любые другие физические или юридические лица не могут нести никакой отвественностиза любое использование материалов данного сайта.

© 2012-2016 TRACK.KG.