Загрузить Adobe Flash Player
Как тут качать? :: Как встать на раздачу?

Скачать / Download torrent  
Хэш: 77f4908aac6d511f8c9ebee680a596f498f99c54
Добавлен: 10 мая 2014 в 20:28:16
Категория: Музыка » Клипы
Размер: 1.94 GB
Проверил: Хозяин судьбы 10 мая 2014 в 21:11:29

Раздают: 177 Качают: 4

Сборник клипов - Millenium Sexy 8 (2014) HDTVRip

Информация о клипах
Исполнитель: VA
Название альбома: Millenium Sexy 8
Год выпуска: 2014
Жанр: РОР
Продолжительность:02:50:07

01 Tito & Tarantula - After Dark (DJ Nejtrino & DJ Stranger Remix)
02 Steve Forest ft Club Dogo & Fatman Scoop - Boys & Girls
03 Bob Sinclar Ft. Sophie Ellis Bextor & Gilbere Forte – Fuck With You (Uncensored 2012)
04 Bodybangers feat. Victoria Kern - Gimme More
05 Guru Josh - Infinity 2012 (DJ Antoine vs Mad Mark Remix)
06 Bonde do Rolê - Kilo
07 Chelsea Bishop - Bad Things
08 DJ Rhiannon - All The Girls Do It
09 Alex Ferrari - Bara Bara Bere Bere
10 Mike Candys feat. Sandra Wild - Sunshine (Fly So High)
11 Autoerotique - Asphyxiation
12 Michael Mind Projekt feat. Dante Thomas - Feeling So Blue
13 Britney Spears - Sweet Dreams
14 Monarchy - Disintegration ft. Dita Von Teese
15 Alexandra Stan vs. Manilla Maniacs - All My People
16 Sisi Girl - Que Sara
17 Miss Millionaire - She's A Freak
18 Sak Noel - Where (I lost my underwear)
19 Tanya Tereshina-Medias Gaga
20 Даша Астафьева & NIKITA - Avocado
21 Henry Mendez - 'El Tiburón (The Shark)'
23 SASH! feat. Jean Pearl - Mirror Mirror
24 Rihanna - Pour It Up (Explicit)
25 Iggy Azalea - Pu$$y
26 Mike Diamondz - Et Patati Et Patata
27 Antonia - Marabou
28 Bryan Wilson & Sebastian Crayn - Ate A Noite Parar
29 Dj Sanny J feat Mr Shammi - Blame It On The Dj
30 DJ Rhiannon - Nasty Bitch
31 Priyanka Chopra feat. Pitbull – Exotic
32 Stone & Van Linden - Summerbreeze
33 Houseshaker feat. Amanda Blush - Light The Sky
34 D.O.D - Bananas
35 Chanel West Coast - Karl
36 Inna ft. Yandel - In Your Eyes
37 Hyper Crush - Rage
39 Nicki Minaj - Starships (Explicit)
40 Shakira & Rihanna - Can't Remember To Forget You
41 Mr. Hyde - Disco Polo
42 42 Dexter & Gold - Gonna Make You Sweat
43 Richard Grey & Nari & Milani - Mas Que Nada
44 Nick Kamarera feat. Alinka - Nada Mas (Pego Pego)
45 Sandro Escobar & DJ Rich-Art - Miami
46 Serebro - Mi Mi Mi
47 Cedric Gervais - Molly
48 Isabela - Yo Soy Isabela
49 BIFFGUYZ feat Bovie & Rox - Я тебя Бум Бум Бум
50 Sasha Lopez Feat. Tony T & Big Ali - Beautiful Life



Качество: HDTVRip
Формат: AVI
Продолжительность: 02:50:07
Видео: Xvid, 624x352 25fps, 1636Kbps
Аудио:MP3, 48000Hz stereo, 128kbps

General
Complete name : D:Клипы11.avi
Format : AVI
Format/Info : Audio Video Interleave
File size : 447 MiB
Duration : 38mn 10s
Overall bit rate : 1 636 Kbps
Writing application : VirtualDubMod 1.5.10.2 (build 2540/release)
Writing library : VirtualDubMod build 2540/release

Video
ID : 0
Format : MPEG-4 Visual
Format profile : Advanced Simple@L5
Format settings, BVOP : 1
Format settings, QPel : No
Format settings, GMC : No warppoints
Format settings, Matrix : Default (H.263)
Codec ID : XVID
Codec ID/Hint : XviD
Duration : 38mn 10s
Bit rate : 1 498 Kbps
Width : 624 pixels
Height : 352 pixels
Display aspect ratio : 16:9
Frame rate : 25.000 fps
Color space : YUV
Chroma subsampling : 4:2:0
Bit depth : 8 bits
Scan type : Progressive
Compression mode : Lossy
Bits/(Pixel*Frame) : 0.273
Stream size : 409 MiB (92%)
Writing library : XviD 1.2.0.dev47 (UTC 2006-11-01)

Audio
ID : 1
Format : MPEG Audio
Format version : Version 1
Format profile : Layer 3
Codec ID : 55
Codec ID/Hint : MP3
Duration : 38mn 10s
Bit rate mode : Constant
Bit rate : 128 Kbps
Channel(s) : 2 channels
Sampling rate : 48.0 KHz
Compression mode : Lossy
Stream size : 35.0 MiB (8%)
Alignment : Aligned on interleaves
Interleave, duration : 40 ms (1.00 video frame)
Interleave, preload duration : 504 ms
Writing library : LAME3.97
Encoding settings : -m s -V 4 -q 2 -lowpass 17 -b 128



Информация
Информация Скриншоты Пиры Скачавшие Список файлов
Залил Оценка Просмотров Скачан Файлов
Borss +1 35805005

Теги
pop

Похожие раздачи

Сборник клипов - 100 MILLION (2013-2015) WEBRip 720p 5.69 GB

Сборник клипов - Best Soundtrack Videos (2014) WEBRip 720p 2.65 GB

Больше похожих раздач →

Список комментариев
Комментарии отсутствуют

Добавить комментарий
Внимание
Гости не могут оставлять комментарии, авторизуйтесь.

Панель навигации

ПОПУЛЯРНЫЕ РАЗДАЧИ
скачать торрент Ледокол (2016) WEB-DLRip | iTunesскачать торрент Ледокол (2016) WEB-DL 1080p | iTunes
скачать торрент Дуэлянт (2016) CAMRipскачать торрент Отряд самоубийц (2016) BDRip 1080p | Расширeнная версия | iTunes
скачать торрент Джейсон Борн (2016) HDTV 720p | Чистый звукскачать торрент Первый мститель: Противостояние (2016) BDRip | IMAX Edition | iTunes
скачать торрент Тарзан. Легенда (2016) HDRip | iTunesскачать торрент Dark Souls 3: Deluxe Edition (2016) PC | RePack от xatab
скачать торрент Люди Икс: Апокалипсис / X-Men: Apocalypse (2016) BDRip 720p | Лицензияскачать торрент Полтора шпиона (2016) BDRip 1080p | Лицензия

Будь с нами!


Наши друзья 



Информация, расположенная на данном сервере, предназначена исключительно для частного использования и не может быть загружена/перенесена на другой компьютер. Ни владелец сайта, ни хостинг-провайдер, ни любые другие физические или юридические лица не могут нести никакой отвественностиза любое использование материалов данного сайта.

© 2012-2016 TRACK.KG.