Загрузить Adobe Flash Player
Как тут качать? :: Как встать на раздачу?

Скачать / Download torrent  
Хэш: 3da71dc4663dc9bb2184646b443740715771a2fd
Добавлен: 27 февраля 2014 в 19:19:50
Категория: Фильмы » Зарубежное кино » Ужасы
Размер: 1.77 GB
Проверил: АРХАНГЕЛ 27 февраля 2014 в 19:19:50

Раздают: 149 Качают: 148

Аттила / Attila - Master of an Empire (2013) BDRip-AVC | L1

Название: Аттила
Оригинальное название: Attila - Master of an Empire

Год выхода: 2013
Страна: США / Global Asylum
Жанр: Ужасы, боевик, триллер
Перевод: Любительское (одноголосое) den904
Оригинальная аудиодорожка: Английский, Немецкий
Субтитры: Английские

Режиссер: Эммануэль Итье
В ролях: Крис Конрад, Люк Барнетт, Пончо Ходжес, М. Стивен Фелти, Стив Хэнкс, Дэнни Лигсей, Микаяла Кэмбелл, Филипп Андре Ботельо, Роксанна Бина, Билл Вурис

О фильме: Спустя полторы тысячи лет после гибели Аттилы – знаменитого своей жестокостью предводителя гуннов, элитный военный спецотряд обнаруживает его гробницу. Совершенно случайно став похитителями древней реликвии, солдаты пробуждают мстительный дух Аттилы к жизни, и теперь тот не остановится ни перед чем, чтобы покарать злоумышленников. Теперь сеющий хаос и разрушения, древний воин, обладающий магической силой, вступает в бой с профессиональными наемниками, оснащенными по последнему слову техники

pic pic pic pic

Качество: BDRip-AVC
Формат: MKV
Продолжительность: 01:25:37
Видео: AVC, 1024 x 576, 1807 kbps
Звук: Русский: AC-3, 2 ch, 192 kbps / Английский, Немецкий: AC-3, 6 ch, 448 kbps

Общее
Уникальный идентификатор : 168348648403719580577546155723716462494 (0x7EA6C532C2870C1E037BA147C20E879E)
Полное имя : G:\Аттила Attila - Master of an Empire (2013) BDRip-AVC\Attila.2013.BDRip-AVC..mkv
Формат : Matroska
Версия формата : Version 2
Размер файла : 1,77 Гбайт
Продолжительность : 1 ч. 25 м.
Режим общего битрейта : Переменный
Общий поток : 2953 Кбит/сек
Программа кодирования : Lavf51.12.1
Библиотека кодирования : Lavf51.12.1

Видео
Идентификатор : 1
Формат : AVC
Формат/Информация : Advanced Video Codec
Профиль формата : Baseline@L3.1
Параметр CABAC формата : Нет
Параметр ReFrames формата : 1 кадр
Параметр GOP формата : M=1, N=12
Идентификатор кодека : V_MPEG4/ISO/AVC
Продолжительность : 1 ч. 25 м.
Вид битрейта : Переменный
Битрейт : 1807 Кбит/сек
Максимальный битрейт : 2790 Кбит/сек
Ширина : 1024 пикселя
Высота : 576 пикселей
Соотношение сторон : 16:9
Режим частоты кадров : Постоянный
Частота кадров : 23,976 кадра/сек
Частота кадров в оригинале : 24,000 кадра/сек
Цветовое пространство : YUV
Субдискретизация насыщенности : 4:2:0
Битовая глубина : 8 бит
Тип развёртки : Прогрессивная
Бит/(Пиксели*Кадры) : 0.128
Размер потока : 1,08 Гбайт (61%)
Default : Да
Forced : Нет

Аудио #1
Идентификатор : 2
Формат : AC-3
Формат/Информация : Audio Coding 3
Расширение режима : CM (complete main)
Параметр Endianness формата : Big
Идентификатор кодека : A_AC3
Продолжительность : 1 ч. 25 м.
Вид битрейта : Постоянный
Битрейт : 192 Кбит/сек
Каналы : 2 канала
Расположение каналов : Front: L R
Частота : 48,0 КГц
Битовая глубина : 16 бит
Метод сжатия : С потерями
Размер потока : 118 Мбайт (7%)
Язык : Russian
Default : Да
Forced : Нет

Аудио #2
Идентификатор : 4
Формат : AC-3
Формат/Информация : Audio Coding 3
Расширение режима : CM (complete main)
Параметр Endianness формата : Big
Идентификатор кодека : A_AC3
Продолжительность : 1 ч. 25 м.
Вид битрейта : Постоянный
Битрейт : 448 Кбит/сек
Каналы : 6 каналов
Расположение каналов : Front: L C R, Side: L R, LFE
Частота : 48,0 КГц
Битовая глубина : 16 бит
Метод сжатия : С потерями
Размер потока : 274 Мбайт (15%)
Язык : English
Default : Да
Forced : Нет

Аудио #3
Идентификатор : 5
Формат : AC-3
Формат/Информация : Audio Coding 3
Расширение режима : CM (complete main)
Параметр Endianness формата : Big
Идентификатор кодека : A_AC3
Продолжительность : 1 ч. 25 м.
Вид битрейта : Постоянный
Битрейт : 448 Кбит/сек
Каналы : 6 каналов
Расположение каналов : Front: L C R, Side: L R, LFE
Частота : 48,0 КГц
Битовая глубина : 16 бит
Метод сжатия : С потерями
Размер потока : 274 Мбайт (15%)
Язык : German
Default : Да
Forced : Нет

Текст
Идентификатор : 3
Формат : UTF-8
Идентификатор кодека : S_TEXT/UTF8
Идентификатор кодека/Информация : UTF-8 Plain Text
Язык : English
Default : Да
Forced : Нет



Информация
Информация Скриншоты Пиры Скачавшие Список файлов
Залил Оценка Просмотров Скачан Файлов
АРХАНГЕЛ 0 656721

Теги
ужасы, боевик, триллер

Похожие раздачи

Аттила Завоеватель / Аттила /Attila the Hun [UNRATED] (2001) DVDRip | P 2.18 GB

Аттила / Attila (2013) [боевик] WEB-DL 720p | VO {den904} + Eng + Sub {Eng} 2.18 GB

Больше похожих раздач →

Список комментариев
Комментарии отсутствуют

Добавить комментарий
Внимание
Гости не могут оставлять комментарии, авторизуйтесь.

Панель навигации

ПОПУЛЯРНЫЕ РАЗДАЧИ
скачать торрент Ледокол (2016) WEB-DLRip | iTunesскачать торрент Доктор Стрэндж (2016) TS
скачать торрент Ледокол (2016) WEB-DL 1080p | iTunesскачать торрент Дуэлянт (2016) CAMRip
скачать торрент Отряд самоубийц (2016) BDRip 1080p | Расширeнная версия | iTunesскачать торрент Джейсон Борн (2016) HDTV 720p | Чистый звук
скачать торрент Первый мститель: Противостояние (2016) BDRip | IMAX Edition | iTunesскачать торрент Тарзан. Легенда (2016) HDRip | iTunes
скачать торрент Dark Souls 3: Deluxe Edition (2016) PC | RePack от xatabскачать торрент Люди Икс: Апокалипсис / X-Men: Apocalypse (2016) BDRip 720p | Лицензия

Будь с нами!


Наши друзья 



Информация, расположенная на данном сервере, предназначена исключительно для частного использования и не может быть загружена/перенесена на другой компьютер. Ни владелец сайта, ни хостинг-провайдер, ни любые другие физические или юридические лица не могут нести никакой отвественностиза любое использование материалов данного сайта.

© 2012-2016 TRACK.KG.