Загрузить Adobe Flash Player
Как тут качать? :: Как встать на раздачу?

Скачать / Download torrent  
Хэш: 5b117029f6a46e0adb330461409fc4d43ebf5198
Добавлен: 23 февраля 2014 в 00:12:20
Категория: Фильмы » Зарубежное кино » Фэнтези
Размер: 1.57 GB
Проверил: АРХАНГЕЛ 23 февраля 2014 в 00:12:20

Раздают: 28 Качают: 7

Колумбарий / Columbarium (2012) WEB-DLRip-AVC | L2

Название: Колумбарий
Оригинальное название: Columbarium

Год выхода: 2012
Страна: Канада
Жанр: фэнтези, триллер, драма
Перевод: Любительское (двухголосое) DeadSno & den904
Оригинальная аудиодорожка: Французский
Субтитры: Английские

Режиссер: Стив Керр
В ролях: Давид Бутен, Пьер Коллин, Жильбер Комтуа, Максим Дюмонтье, Джанет Лэйн, Милен Сен-Совер, Катерина Яле

О фильме: Два брата получают от покойного отца в наследство дом, но на пути туда они даже не подозревали, что будут вынуждены столкнуться с очень странными видениями...

pic pic pic pic

Качество: WEB-DLRip-AVC (исх. WEB-DL 1080p)
Формат: MKV
Продолжительность: 01:24:24
Видео: AVC, 1024 x 436, ~2011 kbps
Звук: Русский: AC-3, 2 ch, 192 kbps / Французский: AC-3, 6 ch, 448 kbps

Общее
Уникальный идентификатор : 168348648403719580577546155723716462494 (0x7EA6C532C2870C1E037BA147C20E879E)
Полное имя : G:\Колумбарий Columbarium.2012.WEB-DLRip-AVC..mkv
Формат : Matroska
Версия формата : Version 2
Размер файла : 1,57 Гбайт
Продолжительность : 1 ч. 24 м.
Режим общего битрейта : Переменный
Общий поток : 2640 Кбит/сек
Программа кодирования : Lavf51.12.1
Библиотека кодирования : Lavf51.12.1

Видео
Идентификатор : 1
Формат : AVC
Формат/Информация : Advanced Video Codec
Профиль формата : Baseline@L3.1
Параметр CABAC формата : Нет
Параметр ReFrames формата : 1 кадр
Параметр GOP формата : M=1, N=12
Идентификатор кодека : V_MPEG4/ISO/AVC
Продолжительность : 1 ч. 24 м.
Вид битрейта : Переменный
Битрейт : 2011 Кбит/сек
Максимальный битрейт : 3090 Кбит/сек
Ширина : 1024 пикселя
Высота : 436 пикселей
Соотношение сторон : 2,35:1
Соотношение сторон в оригинале : 2,35:1
Режим частоты кадров : Постоянный
Частота кадров : 23,976 кадра/сек
Частота кадров в оригинале : 24,000 кадра/сек
Цветовое пространство : YUV
Субдискретизация насыщенности : 4:2:0
Битовая глубина : 8 бит
Тип развёртки : Прогрессивная
Бит/(Пиксели*Кадры) : 0.188
Размер потока : 1,19 Гбайт (76%)
Язык : English
Default : Да
Forced : Нет

Аудио #1
Идентификатор : 2
Формат : AC-3
Формат/Информация : Audio Coding 3
Расширение режима : CM (complete main)
Параметр Endianness формата : Big
Идентификатор кодека : A_AC3
Продолжительность : 1 ч. 24 м.
Вид битрейта : Постоянный
Битрейт : 192 Кбит/сек
Каналы : 2 канала
Расположение каналов : Front: L R
Частота : 48,0 КГц
Битовая глубина : 16 бит
Метод сжатия : С потерями
Размер потока : 117 Мбайт (7%)
Язык : Russian
Default : Да
Forced : Нет

Аудио #2
Идентификатор : 4
Формат : AC-3
Формат/Информация : Audio Coding 3
Расширение режима : CM (complete main)
Параметр Endianness формата : Big
Идентификатор кодека : A_AC3
Продолжительность : 1 ч. 24 м.
Вид битрейта : Постоянный
Битрейт : 384 Кбит/сек
Каналы : 6 каналов
Расположение каналов : Front: L C R, Side: L R, LFE
Частота : 48,0 КГц
Битовая глубина : 16 бит
Метод сжатия : С потерями
Размер потока : 233 Мбайт (15%)
Язык : French
Default : Да
Forced : Нет

Текст
Идентификатор : 3
Формат : UTF-8
Идентификатор кодека : S_TEXT/UTF8
Идентификатор кодека/Информация : UTF-8 Plain Text
Язык : English
Default : Да
Forced : Нет



Информация
Информация Скриншоты Пиры Скачавшие Список файлов
Залил Оценка Просмотров Скачан Файлов
АРХАНГЕЛ +1 365571

Теги
фэнтези, триллер, драма

Похожие раздачи

Поиск не дал результатов.Больше похожих раздач →

Список комментариев
Комментарии отсутствуют

Добавить комментарий
Внимание
Гости не могут оставлять комментарии, авторизуйтесь.

Панель навигации

ПОПУЛЯРНЫЕ РАЗДАЧИ
скачать торрент Ледокол (2016) WEB-DLRip | iTunesскачать торрент Доктор Стрэндж (2016) TS
скачать торрент Ледокол (2016) WEB-DL 1080p | iTunesскачать торрент Дуэлянт (2016) CAMRip
скачать торрент Отряд самоубийц (2016) BDRip 1080p | Расширeнная версия | iTunesскачать торрент Джейсон Борн (2016) HDTV 720p | Чистый звук
скачать торрент Первый мститель: Противостояние (2016) BDRip | IMAX Edition | iTunesскачать торрент Тарзан. Легенда (2016) HDRip | iTunes
скачать торрент Dark Souls 3: Deluxe Edition (2016) PC | RePack от xatabскачать торрент Люди Икс: Апокалипсис / X-Men: Apocalypse (2016) BDRip 720p | Лицензия

Будь с нами!


Наши друзья 



Информация, расположенная на данном сервере, предназначена исключительно для частного использования и не может быть загружена/перенесена на другой компьютер. Ни владелец сайта, ни хостинг-провайдер, ни любые другие физические или юридические лица не могут нести никакой отвественностиза любое использование материалов данного сайта.

© 2012-2016 TRACK.KG.