Загрузить Adobe Flash Player
Как тут качать? :: Как встать на раздачу?

Скачать / Download torrent  
Хэш: 01a67bcb23104f396262fdbf65519f03131e05d3
Добавлен: 22 февраля 2014 в 16:53:37
Категория: Фильмы » Зарубежное кино » Фантастика
Размер: 1.37 GB
Проверил: АРХАНГЕЛ 22 февраля 2014 в 16:53:37

Раздают: 153 Качают: 49

Новый апокалипсис. Молния судьбы / Rapture (2012) TVRip | P

«Никаких предупреждений. Никакой жалости. Вам конец.»

pic

Название: Новый апокалипсис. Молния судьбы
Оригинальное название: Rapture

Год выхода: 2012
Страна: США / LB-Jow Film Partners, Royal 11 Films, Thunder Bay
Жанр: Фантастика, боевик, триллер
Перевод: Профессиональный многоголосый СТС

Режиссер: Ричард Лоури
В ролях: Жаклин Буда, Дагмар Эдвардс, Джанет Лопез, Тереза МакЛафлин, Кайли Майкл Портсмут, Блейн Уитли

О фильме: Это происходит совершенно внезапно. Ломаются все электрические приборы, темные облака внеземного происхождения, рассыпая смертоносные молнии, накрывают город за городом, а вода и еда оказываются отравлены. Главные герои отчаянно пытаются спастись…

pic pic pic pic

Качество: TVRip
Формат: AVI
Продолжительность: 01:14:57
Видео: XviD, 720 x 400, ~2277 kbps
Звук: АС3, 2 ch, 320 kbps

Общее
Полное имя : G:\Новый апокалипсис. Молния судьбы Rapture (2012) TVRip P\Rapture (2012) TVRip.avi
Формат : AVI
Формат/Информация : Audio Video Interleave
Профиль формата : OpenDML
Размер файла : 1,37 Гбайт
Продолжительность : 1 ч. 14 м.
Общий поток : 2609 Кбит/сек
Программа кодирования : Lavf51.12.1

Видео
Идентификатор : 0
Формат : MPEG-4 Visual
Профиль формата : Simple@L1
Параметр BVOP формата : Нет
Параметр QPel формата : Нет
Параметр GMC формата : Без точки перехода
Параметр матрицы формата : Default (H.263)
Идентификатор кодека : FMP4
Продолжительность : 1 ч. 14 м.
Битрейт : 2277 Кбит/сек
Ширина : 720 пикселей
Высота : 400 пикселей
Соотношение сторон : 16:9
Частота кадров : 25,000 кадров/сек
Цветовое пространство : YUV
Субдискретизация насыщенности : 4:2:0
Битовая глубина : 8 бит
Тип развёртки : Прогрессивная
Метод сжатия : С потерями
Бит/(Пиксели*Кадры) : 0.316
Размер потока : 1,19 Гбайт (87%)
Библиотека кодирования : Lavc51.40.4

Аудио
Идентификатор : 1
Формат : AC-3
Формат/Информация : Audio Coding 3
Расширение режима : CM (complete main)
Параметр Endianness формата : Big
Идентификатор кодека : 2000
Продолжительность : 1 ч. 14 м.
Вид битрейта : Постоянный
Битрейт : 320 Кбит/сек
Каналы : 2 канала
Расположение каналов : Front: L R
Частота : 48,0 КГц
Битовая глубина : 16 бит
Метод сжатия : С потерями
Размер потока : 172 Мбайт (12%)
Выравнивание : Соединение по промежуткам
Продолжительность промежутка : 32 мс. (0,80 видеокадр)
Время предзагрузки промежутка : 32 мс.



Информация
Информация Скриншоты Пиры Скачавшие Список файлов
Залил Оценка Просмотров Скачан Файлов
АРХАНГЕЛ +1 660671

Теги
фантастика, боевик, триллер

Похожие раздачи

Поиск не дал результатов.Больше похожих раздач →

Список комментариев
Комментарии отсутствуют

Добавить комментарий
Внимание
Гости не могут оставлять комментарии, авторизуйтесь.

Панель навигации

ПОПУЛЯРНЫЕ РАЗДАЧИ
скачать торрент Ледокол (2016) WEB-DLRip | iTunesскачать торрент Ледокол (2016) WEB-DL 1080p | iTunes
скачать торрент Дуэлянт (2016) CAMRipскачать торрент Отряд самоубийц (2016) BDRip 1080p | Расширeнная версия | iTunes
скачать торрент Джейсон Борн (2016) HDTV 720p | Чистый звукскачать торрент Первый мститель: Противостояние (2016) BDRip | IMAX Edition | iTunes
скачать торрент Тарзан. Легенда (2016) HDRip | iTunesскачать торрент Dark Souls 3: Deluxe Edition (2016) PC | RePack от xatab
скачать торрент Люди Икс: Апокалипсис / X-Men: Apocalypse (2016) BDRip 720p | Лицензияскачать торрент Полтора шпиона (2016) BDRip 1080p | Лицензия

Будь с нами!


Наши друзья 



Информация, расположенная на данном сервере, предназначена исключительно для частного использования и не может быть загружена/перенесена на другой компьютер. Ни владелец сайта, ни хостинг-провайдер, ни любые другие физические или юридические лица не могут нести никакой отвественностиза любое использование материалов данного сайта.

© 2012-2016 TRACK.KG.