Загрузить Adobe Flash Player
Как тут качать? :: Как встать на раздачу?

Скачать / Download torrent  
Хэш: 146012069855c226f9d0c2e9fc1219b6fb4a3b5b
Добавлен: 20 февраля 2014 в 10:37:19
Категория: Фильмы » Российские фильмы
Размер: 2.47 GB
Проверил: АРХАНГЕЛ 20 февраля 2014 в 10:37:19

Раздают: 56 Качают: 29

Олимпийская деревня (2010) DVB

«Старт дает Москва! Деревня зажигает!»

pic

Название: Олимпийская деревня

Год выхода: 2010
Страна: Россия / Амигос фильм
Жанр: комедия
Перевод: Не требуется

Режиссер: Александр Сухарев
В ролях: Михаил Ефремов, Валерий Гаркалин, Денис Никифоров, Виктор Бычков, Алексей Булдаков, Геннадий Хазанов, Инга Оболдина, Галина Петрова, Сергей Колешня, Настя Городенцева, Тимофей Трибунцев, Владимир Гусев.

О фильме: Москва. Август 1980-го года. Власти СССР готовят Москву к приезду олимпийских гостей. В связи с кампанией по «очищению» Москвы, неблагонадежных граждан, инакомыслящих и диссидентов на время олимпиады отправляют за 101-й километр в дачные поселки и санатории.
В их числе — инфантильный виолончелист Арсений Чайка, который победив на конкурсе им. Чайковского, привлек к себе излишнее внимание иностранной музыкальной прессы и теперь находится под пристальным вниманием соответствующих органов. С виолончелью за спиной и с единственным другом — кроликом на руках, Арсений отправляется в «ссылку».
Деревня «Протасово» живет своей привычной жизнью — дачники едят овощи с грядки, местные жители пьют за олимпийские рекорды. Московские гости органично вписались в деревенский пейзаж. Устроив хиппи-лагерь на берегу реки, они пьют портвейн и дают импровизированные рок-концерты. Арсению же спокойно провести ссылку не удается…
Его пиликанье сильно раздражает местных алкоголиков, которые тщетно пытаются продать Арсению украденного поросенка, чтобы выпить на день ВМФ. Бывший десантник Игорь, ревнует к Арсению свою девушку — студентку Леру, которой почему-то музыка Арсения нравится больше, чем бицепсы и новенький «уазик» Игоря.
Игорь случайно сбивает машиной кролика, чего Арсений уже не может вынести и решается на самоубийство. Лера спасает Арсения, и с этого момента они уже не скрывают своих чувств. Игорь жаждет мести.
В это время в Москву прилетает корреспондент «Радио Свобода» Виллиам Смит. Он ищет Арсения, чтобы взять у него интервью и помочь в его карьере. Смит узнает где находится Арсений и едет за ним в деревню под присмотром законспирированных агентов КГБ.
Когда все герои собираются в деревушке, начинается то, что называется настоящей комедией. На фоне спортивных достижений и олимпийских побед, в деревне происходит своя «олимпиада». Запутанный клубок невероятно комичных ситуаций разматывает двухсоткилограммовый боров по имени «Мальчик», в то время как в Москве олимпийский Мишка поднимается над трибунами…

pic pic pic pic

Качество: DVB
Формат: MPEG-PS
Продолжительность: 01:19:06
Видео: MPEG-2; 720x576@1024x576, ~4190 Kbps
Звук: MPEG Layer 3, 2 ch, 192 kbps


Общее
Полное имя Олимпийская деревня__DVB by volk & UAOnline.mpg
Формат : MPEG-PS
Размер файла : 2,47 Гбайт
Продолжительность : 1 ч. 19 м.
Режим общего битрейта : Переменный
Общий поток : 4474 Кбит/сек
Библиотека кодирования : (c) 1998-2010 Womble Multimedia, Inc. / MPEG Video Wizard DVD 5.0.0.114 (01/2010) / Nov 13 2010

Видео
Идентификатор : 224 (0xE0)
Формат : MPEG Video
Версия формата : Version 2
Профиль формата : Main@Main
Параметр BVOP формата : Да
Параметр матрицы формата : Выборочная
Продолжительность : 1 ч. 19 м.
Вид битрейта : Переменный
Битрейт : 4193 Кбит/сек
Максимальный битрейт : 15,0 Мбит/сек
Ширина : 720 пикселей
Высота : 576 пикселей
Соотношение сторон : 16:9
Частота кадров : 25,000 кадров/сек
Стандарт вещания : PAL
Цветовое пространство : YUV
Субдискретизация насыщенности : 4:2:0
Битовая глубина : 8 бит
Тип развёртки : Чересстрочная
Порядок развёртки : Верхнее поле первое
Метод сжатия : С потерями
Бит/(Пиксели*Кадры) : 0.404
Размер потока : 2,32 Гбайт (94%)
Библиотека кодирования : (c) 1998-2010 Womble Multimedia, Inc. / MPEG Video Wizard DVD 5.0.0.114 (01/2010) / Nov 13 2010

Аудио
Идентификатор : 192 (0xC0)
Формат : MPEG Audio
Версия формата : Version 1
Профиль формата : Layer 2
Продолжительность : 1 ч. 19 м.
Вид битрейта : Постоянный
Битрейт : 192 Кбит/сек
Каналы : 2 канала
Частота : 48,0 КГц
Метод сжатия : С потерями
Размер потока : 109 Мбайт (4%)



Информация
Информация Скриншоты Пиры Скачавшие Список файлов
Залил Оценка Просмотров Скачан Файлов
АРХАНГЕЛ +1 538601

Теги
комедия

Похожие раздачи

Олимпийская деревня / Любовь. Олимпиада. Рок-н-ролл [2011, Комедия, SATRip] 1.02 GB

Больше похожих раздач →

Список комментариев
Комментарии отсутствуют

Добавить комментарий
Внимание
Гости не могут оставлять комментарии, авторизуйтесь.

Панель навигации

ПОПУЛЯРНЫЕ РАЗДАЧИ
скачать торрент Ледокол (2016) WEB-DLRip | iTunesскачать торрент Доктор Стрэндж (2016) TS
скачать торрент Ледокол (2016) WEB-DL 1080p | iTunesскачать торрент Дуэлянт (2016) CAMRip
скачать торрент Отряд самоубийц (2016) BDRip 1080p | Расширeнная версия | iTunesскачать торрент Джейсон Борн (2016) HDTV 720p | Чистый звук
скачать торрент Первый мститель: Противостояние (2016) BDRip | IMAX Edition | iTunesскачать торрент Тарзан. Легенда (2016) HDRip | iTunes
скачать торрент Dark Souls 3: Deluxe Edition (2016) PC | RePack от xatabскачать торрент Люди Икс: Апокалипсис / X-Men: Apocalypse (2016) BDRip 720p | Лицензия

Будь с нами!


Наши друзья 



Информация, расположенная на данном сервере, предназначена исключительно для частного использования и не может быть загружена/перенесена на другой компьютер. Ни владелец сайта, ни хостинг-провайдер, ни любые другие физические или юридические лица не могут нести никакой отвественностиза любое использование материалов данного сайта.

© 2012-2016 TRACK.KG.