Загрузить Adobe Flash Player
Как тут качать? :: Как встать на раздачу?

Скачать / Download torrent  
Хэш: 5011eee45873bdd38f23de169697072c241f1e44
Добавлен: 16 февраля 2014 в 18:26:03
Категория: Фильмы » Зарубежное кино » Мелодрамы / Драмы
Размер: 1.59 GB
Проверил: АРХАНГЕЛ 16 февраля 2014 в 18:26:03

Раздают: 7 Качают: 11

Гранд Централ. Любовь на атомы / Grand Central (2013) BDRip-AVC | Online movies

Название: Гранд Централ. Любовь на атомы
Оригинальное название: Grand Central

Год выхода: 2013
Страна: Франция, Австрия / Les Films Velvet
Жанр: драма, мелодрама
Перевод: Профессиональное (многоголосое) Online movies
Оригинальная аудиодорожка: французский

Режиссер: Ребекка Злотовски
В ролях: Тахар Рахим, Леа Сейду, Оливье Гурме, Дени Меноше, Жоан Либеро, Ножа Куадра, Ноель Перез Бискаярт, Камилль Лелуш, Гийом Вердье, Мари Берто

О фильме: Гари – обычный молодой человек, недавно получивший работу на атомной станции. Его наняли в технический отдел на сервисное обслуживание реактора, подразумевающее выполнение задач с высоким риском облучения. Никогда до этого не имевший постоянной работы и лишь перебивающийся случайными заработками, Гари радуется появившейся стабильности и хорошей зарплате.

Впрочем, новые коллеги объясняют парню, что за эти деньги он продает собственное здоровье, каждый день получая дозу радиации и подвергая свою жизнь смертельной опасности. Вскоре Гари знакомится с девушкой Кароль, и рядом с ней его сердце начинает биться так же учащенно, как и при полученной дозе. Между молодыми людьми возникает взаимный интерес и притяжение, и хотя у Кароль есть муж – новый друг и коллега Гари, это не служит помехой внезапно вспыхнувшей страсти, грозящей превратится в опасную лавину. Запретная любовь несет в себе угрозу не меньшую, чем радиация, и так же разрушает жизнь Гари.

pic pic pic pic

Качество: BDRip-AVC
Формат: MKV
Продолжительность: 01:30:35
Видео: AVC, 1024 x 552, ~1817 kbps
Звук: Русский: AC-3, 2 ch, 192 kbps / Французский: AC-3, 6 ch, 448 kbps

Уникальный идентификатор : 168348648403719580577546155723716462494 (0x7EA6C532C2870C1E037BA147C20E879E)
Полное имя : G:\ДИСК 2\01.ФИЛЬМЫ\Гранд Централ. Любовь на атомы\Grand.Central.2013.BDRip-AVC..mkv
Формат : Matroska
Версия формата : Version 2
Размер файла : 1,59 Гбайт
Продолжительность : 1 ч. 30 м.
Режим общего битрейта : Переменный
Общий поток : 2507 Кбит/сек
Программа кодирования : Lavf51.12.1
Библиотека кодирования : Lavf51.12.1

Видео
Идентификатор : 1
Формат : AVC
Формат/Информация : Advanced Video Codec
Профиль формата : Baseline@L3.1
Параметр CABAC формата : Нет
Параметр ReFrames формата : 1 кадр
Параметр GOP формата : M=1, N=12
Идентификатор кодека : V_MPEG4/ISO/AVC
Продолжительность : 1 ч. 30 м.
Вид битрейта : Переменный
Битрейт : 1817 Кбит/сек
Максимальный битрейт : 2790 Кбит/сек
Ширина : 1024 пикселя
Высота : 552 пикселя
Соотношение сторон : 1,85:1
Режим частоты кадров : Постоянный
Частота кадров : 24,000 кадра/сек
Цветовое пространство : YUV
Субдискретизация насыщенности : 4:2:0
Битовая глубина : 8 бит
Тип развёртки : Прогрессивная
Бит/(Пиксели*Кадры) : 0.134
Размер потока : 1,15 Гбайт (72%)
Default : Да
Forced : Нет

Аудио #1
Идентификатор : 2
Формат : AC-3
Формат/Информация : Audio Coding 3
Расширение режима : CM (complete main)
Параметр Endianness формата : Big
Идентификатор кодека : A_AC3
Продолжительность : 1 ч. 30 м.
Вид битрейта : Постоянный
Битрейт : 192 Кбит/сек
Каналы : 2 канала
Расположение каналов : Front: L R
Частота : 48,0 КГц
Битовая глубина : 16 бит
Метод сжатия : С потерями
Размер потока : 124 Мбайт (8%)
Язык : Russian
Default : Да
Forced : Нет

Аудио #2
Идентификатор : 3
Формат : AC-3
Формат/Информация : Audio Coding 3
Расширение режима : CM (complete main)
Параметр Endianness формата : Big
Идентификатор кодека : A_AC3
Продолжительность : 1 ч. 30 м.
Вид битрейта : Постоянный
Битрейт : 448 Кбит/сек
Каналы : 6 каналов
Расположение каналов : Front: L C R, Side: L R, LFE
Частота : 48,0 КГц
Битовая глубина : 16 бит
Метод сжатия : С потерями
Размер потока : 290 Мбайт (18%)
Язык : French
Default : Да
Forced : Нет



Информация
Информация Скриншоты Пиры Скачавшие Список файлов
Залил Оценка Просмотров Скачан Файлов
АРХАНГЕЛ 0 452701

Теги
драма, мелодрама

Похожие раздачи

Гранд Централ. Любовь на атомы / Grand Central (2013) BDRip 1080p 7.60 GB

Гранд Централ. Любовь на атомы / Grand Central (2013) BDRip 720p 4.49 GB

Больше похожих раздач →

Список комментариев
Комментарии отсутствуют

Добавить комментарий
Внимание
Гости не могут оставлять комментарии, авторизуйтесь.

Панель навигации

ПОПУЛЯРНЫЕ РАЗДАЧИ
скачать торрент Ледокол (2016) WEB-DLRip | iTunesскачать торрент Доктор Стрэндж (2016) TS
скачать торрент Ледокол (2016) WEB-DL 1080p | iTunesскачать торрент Дуэлянт (2016) CAMRip
скачать торрент Отряд самоубийц (2016) BDRip 1080p | Расширeнная версия | iTunesскачать торрент Джейсон Борн (2016) HDTV 720p | Чистый звук
скачать торрент Первый мститель: Противостояние (2016) BDRip | IMAX Edition | iTunesскачать торрент Тарзан. Легенда (2016) HDRip | iTunes
скачать торрент Dark Souls 3: Deluxe Edition (2016) PC | RePack от xatabскачать торрент Люди Икс: Апокалипсис / X-Men: Apocalypse (2016) BDRip 720p | Лицензия

Будь с нами!


Наши друзья 



Информация, расположенная на данном сервере, предназначена исключительно для частного использования и не может быть загружена/перенесена на другой компьютер. Ни владелец сайта, ни хостинг-провайдер, ни любые другие физические или юридические лица не могут нести никакой отвественностиза любое использование материалов данного сайта.

© 2012-2016 TRACK.KG.