Загрузить Adobe Flash Player
Как тут качать? :: Как встать на раздачу?

Скачать / Download torrent  
Хэш: 8e637a58d4cc5c3749715f60d075a2acdd5cf4c4
Добавлен: 15 февраля 2014 в 03:32:11
Категория: Фильмы » Зарубежное кино » Короткометражные
Размер: 349.54 MB
Проверил: АРХАНГЕЛ 15 февраля 2014 в 03:32:11

Раздают: 9 Качают: 19

Короткометражка Marvel: Да здравствует король / Marvel One-Shot: All Hail the King (2014) BDRip-AVC | P

Название: Короткометражка Marvel: Да здравствует король /
Оригинальное название: Marvel One-Shot: All Hail the King

Год выхода: 2014
Страна: США / Marvel Studios
Жанр: короткометражка, боевик, приключения
Перевод: Профессиональный (многоголосый закадровый) - Несмертельное оружие
Оригинальная аудиодорожка: английский
Субтитры: русские (полные), английские (полные) [softsub (SRT)]

Режиссер: Дрю Пирс
В ролях: Бен Кингсли, Скут МакНэйри, Лестер Спейт, Сэм Рокуэлл, Мэтт Джералд, Аллен Мальдонадо, Кристал Манки, Роб С. Грэй, Стив Хуан, Маркус Нативидад, Эдди Дж. Рангель и др.

О фильме: Короткометражный фильм расскажет о дальнейшей судьбе Тревора Слэттери после событий показанных в фильме «Железный человек 3».
Тревор Слэттери отбывает своё заключение в тюрьме строгого режима «Seagate». К счастью для него, образ террориста по имени Мандарин - принес ему большую известность и защиту даже за решеткой, вследствие чего, актер с удовольствием согласился дать интервью режиссеру-документалисту Джексону Норрису.
Для Норриса это последний шанс зайти дальше, чем ложь и отговорки, столкнуть Слэттери с элементами его собственного прошлого и добраться до правды. Потому, что всем нужно выяснить раз и навсегда: кто такой Тревор Слэттери?

pic pic pic

Качество: BDRip-AVC
Формат: MKV
Продолжительность: 00:13:51
Видео: AVC, 1152x480, ~2757 kbps
Звук: Русский / Английский: AC3, 6 ch, 384.00 kbps

Общее
Уникальный идентификатор : 208500208986505904654484923335773763798 (0x9CDBADF9990C3D5F9513B318538FB8D6)
Полное имя : G:\ДИСК 2\01.ФИЛЬМЫ\Короткометражка Marvel Да здравствует король Marvel One-Shot All Hail the King (2014) BDRip-AVC P\Marvel.One-Shot.All.Hail.The.King.2014.BDRip-AVC.H.264.AC3.RUS.-Nesmertelnoe.oruzhie.mkv
Формат : Matroska
Версия формата : Version 2
Размер файла : 350 Мбайт
Продолжительность : 13 м.
Общий поток : 3525 Кбит/сек
Название фильма : Короткометражка Marvel: Да здравствует король / Marvel One-Shot: All Hail the King (2014) BDRip-AVC [Релиз от: Несмертельное оружие]
Дата кодирования : UTC 2014-02-11 21:51:42
Программа кодирования : mkvmerge v5.2.1 ('A Far Off Place') built on Jan 2 2012 23:21:10
Библиотека кодирования : libebml v1.2.3 + libmatroska v1.3.0

Видео
Идентификатор : 1
Формат : AVC
Формат/Информация : Advanced Video Codec
Профиль формата : High@L4.1
Параметр CABAC формата : Да
Параметр ReFrames формата : 5 кадров
Идентификатор кодека : V_MPEG4/ISO/AVC
Продолжительность : 13 м.
Битрейт : 2757 Кбит/сек
Ширина : 1152 пикселя
Высота : 480 пикселей
Соотношение сторон : 2,40:1
Режим частоты кадров : Постоянный
Частота кадров : 23,976 кадра/сек
Цветовое пространство : YUV
Субдискретизация насыщенности : 4:2:0
Битовая глубина : 8 бит
Тип развёртки : Прогрессивная
Бит/(Пиксели*Кадры) : 0.208
Размер потока : 266 Мбайт (76%)
Библиотека кодирования : x264 core 120 r2164 da19765
Настройки программы : cabac=1 / ref=5 / deblock=1:-1:-1 / analyse=0x3:0x113 / me=umh / subme=9 / psy=1 / psy_rd=1.00:0.00 / mixed_ref=1 / me_range=24 / chroma_me=1 / trellis=2 / 8x8dct=1 / cqm=0 / deadzone=21,11 / fast_pskip=1 / chroma_qp_offset=-2 / threads=3 / sliced_threads=0 / nr=0 / decimate=1 / interlaced=0 / bluray_compat=0 / constrained_intra=0 / bframes=5 / b_pyramid=2 / b_adapt=2 / b_bias=0 / direct=1 / weightb=1 / open_gop=0 / weightp=2 / keyint=240 / keyint_min=23 / scenecut=40 / intra_refresh=0 / rc_lookahead=100 / rc=2pass / mbtree=1 / bitrate=2757 / ratetol=1.0 / qcomp=0.70 / qpmin=0 / qpmax=51 / qpstep=4 / cplxblur=20.0 / qblur=0.5 / vbv_maxrate=50000 / vbv_bufsize=50000 / nal_hrd=none / ip_ratio=1.40 / aq=1:1.00
Язык : English
Default : Да
Forced : Нет

Аудио #1
Идентификатор : 2
Формат : AC-3
Формат/Информация : Audio Coding 3
Расширение режима : CM (complete main)
Параметр Endianness формата : Big
Идентификатор кодека : A_AC3
Продолжительность : 13 м.
Вид битрейта : Постоянный
Битрейт : 384 Кбит/сек
Каналы : 6 каналов
Расположение каналов : Front: L C R, Side: L R, LFE
Частота : 48,0 КГц
Битовая глубина : 16 бит
Метод сжатия : С потерями
Размер потока : 38,1 Мбайт (11%)
Заголовок : MVO (Несмертельное оружие)
Язык : Russian
Default : Да
Forced : Нет

Аудио #2
Идентификатор : 3
Формат : AC-3
Формат/Информация : Audio Coding 3
Расширение режима : CM (complete main)
Параметр Endianness формата : Big
Идентификатор кодека : A_AC3
Продолжительность : 13 м.
Вид битрейта : Постоянный
Битрейт : 384 Кбит/сек
Каналы : 6 каналов
Расположение каналов : Front: L C R, Side: L R, LFE
Частота : 48,0 КГц
Битовая глубина : 16 бит
Метод сжатия : С потерями
Размер потока : 38,1 Мбайт (11%)
Заголовок : Original
Язык : English
Default : Нет
Forced : Нет

Текст #1
Идентификатор : 4
Формат : UTF-8
Идентификатор кодека : S_TEXT/UTF8
Идентификатор кодека/Информация : UTF-8 Plain Text
Заголовок : Full
Язык : Russian
Default : Нет
Forced : Нет

Текст #2
Идентификатор : 5
Формат : UTF-8
Идентификатор кодека : S_TEXT/UTF8
Идентификатор кодека/Информация : UTF-8 Plain Text
Заголовок : Full
Язык : English
Default : Нет
Forced : Нет



Информация
Информация Скриншоты Пиры Скачавшие Список файлов
Залил Оценка Просмотров Скачан Файлов
АРХАНГЕЛ 0 1197561

Теги
короткометражка, боевик, приключения

Похожие раздачи

Короткометражка Marvel: Агент Картер / Marvel One-Shot: Agent Carter (2013) [короткометражка, фантастика, боевик, приключения] B 399.28 MB

Образец 47 / Marvel: Объект 47 / Marvel One-Shot Item: 47 (2012) [Фантастика, боевик, короткометражка] HDRip | MVO {Несмертельно 178.67 MB

Больше похожих раздач →

Список комментариев
:: В сети АРХАНГЕЛ :: Администратор :: 15 февраля 2014 в 03:36:33
0
Проголосуй 1 раз в сутки за наш сайт на http://www.image.kg/images/2014/02/11/rWXqZ.gif и получи 100 бонусов.
Количество страниц: 1 | На страничку (строк): 20 | Всего данных: 1

Добавить комментарий
Внимание
Гости не могут оставлять комментарии, авторизуйтесь.

Панель навигации

ПОПУЛЯРНЫЕ РАЗДАЧИ
скачать торрент Ледокол (2016) WEB-DLRip | iTunesскачать торрент Доктор Стрэндж (2016) TS
скачать торрент Ледокол (2016) WEB-DL 1080p | iTunesскачать торрент Дуэлянт (2016) CAMRip
скачать торрент Отряд самоубийц (2016) BDRip 1080p | Расширeнная версия | iTunesскачать торрент Джейсон Борн (2016) HDTV 720p | Чистый звук
скачать торрент Первый мститель: Противостояние (2016) BDRip | IMAX Edition | iTunesскачать торрент Тарзан. Легенда (2016) HDRip | iTunes
скачать торрент Dark Souls 3: Deluxe Edition (2016) PC | RePack от xatabскачать торрент Люди Икс: Апокалипсис / X-Men: Apocalypse (2016) BDRip 720p | Лицензия

Будь с нами!


Наши друзья 



Информация, расположенная на данном сервере, предназначена исключительно для частного использования и не может быть загружена/перенесена на другой компьютер. Ни владелец сайта, ни хостинг-провайдер, ни любые другие физические или юридические лица не могут нести никакой отвественностиза любое использование материалов данного сайта.

© 2012-2016 TRACK.KG.