Загрузить Adobe Flash Player
Как тут качать? :: Как встать на раздачу?

Скачать / Download torrent  
Хэш: 43e26bf1d0c0e6bf951a83aa0a4518ffe0920ca7
Добавлен: 15 февраля 2014 в 01:11:20
Категория: Фильмы » Зарубежное кино » Фантастика
Размер: 2.14 GB
Проверил: АРХАНГЕЛ 15 февраля 2014 в 01:11:20

Раздают: 1 Качают: 4

Химера / Splice (2009) BDRip-AVC | Лицензия

«Она человек только наполовину...»

pic

Название: Химера
Оригинальное название: Splice

Год выхода: 2009
Страна: Канада, Франция, США / Dark Castle Entertainment
Жанр: ужасы, фантастика, триллер
Перевод: Дублированное Лицензия
Оригинальная аудиодорожка: английский
Субтитры: английские

Режиссер: Винченцо Натали
В ролях: Эдриан Броуди, Сара Полли, Дэвид Хьюлет, Дельфин Шанеак, Эбигейл Чу, Брэндон МакГибон, Аманда Бругел, Стефани Бейрд

О фильме: Двое ученых, Эльза и Клайв, пренебрагая морально-этическими категориями и уголовным кодексом, синтезировали ДНК человека и животного. В результате эксперимента на свет появилась девочка, впоследствии ставшая женщиной-химерой. С ней у создателей обнаруживается особая связь, грозящая им смертельной опасностью.

pic pic pic pic pic

Качество: BDRip-AVC
Формат: MKV
Продолжительность: 01:43:57
Видео: AVC, 1024 x 576, ~1996 kbps
Звук: Русский / Английский: AC-3, 6 ch, 448 kbps

Общее
Уникальный идентификатор : 168348648403719580577546155723716462494 (0x7EA6C532C2870C1E037BA147C20E879E)
Полное имя : G:\ДИСК 2\Himera.2009.D.BDRip-AVC.mkv
Формат : Matroska
Версия формата : Version 2
Размер файла : 2,14 Гбайт
Продолжительность : 1 ч. 43 м.
Режим общего битрейта : Переменный
Общий поток : 2951 Кбит/сек
Программа кодирования : Lavf51.12.1
Библиотека кодирования : Lavf51.12.1

Видео
Идентификатор : 1
Формат : AVC
Формат/Информация : Advanced Video Codec
Профиль формата : Baseline@L3.1
Параметр CABAC формата : Нет
Параметр ReFrames формата : 1 кадр
Параметр GOP формата : M=1, N=12
Идентификатор кодека : V_MPEG4/ISO/AVC
Продолжительность : 1 ч. 43 м.
Вид битрейта : Переменный
Битрейт : 1996 Кбит/сек
Максимальный битрейт : 3075 Кбит/сек
Ширина : 1024 пикселя
Высота : 576 пикселей
Соотношение сторон : 16:9
Режим частоты кадров : Постоянный
Частота кадров : 23,976 кадра/сек
Частота кадров в оригинале : 24,000 кадра/сек
Цветовое пространство : YUV
Субдискретизация насыщенности : 4:2:0
Битовая глубина : 8 бит
Тип развёртки : Прогрессивная
Бит/(Пиксели*Кадры) : 0.141
Размер потока : 1,45 Гбайт (68%)
Язык : English
Default : Да
Forced : Нет

Аудио #1
Идентификатор : 2
Формат : AC-3
Формат/Информация : Audio Coding 3
Расширение режима : CM (complete main)
Параметр Endianness формата : Big
Идентификатор кодека : A_AC3
Продолжительность : 1 ч. 43 м.
Вид битрейта : Постоянный
Битрейт : 448 Кбит/сек
Каналы : 6 каналов
Расположение каналов : Front: L C R, Side: L R, LFE
Частота : 48,0 КГц
Битовая глубина : 16 бит
Метод сжатия : С потерями
Размер потока : 333 Мбайт (15%)
Язык : Russian
Default : Да
Forced : Нет

Аудио #2
Идентификатор : 4
Формат : AC-3
Формат/Информация : Audio Coding 3
Расширение режима : CM (complete main)
Параметр Endianness формата : Big
Идентификатор кодека : A_AC3
Продолжительность : 1 ч. 43 м.
Вид битрейта : Постоянный
Битрейт : 448 Кбит/сек
Каналы : 6 каналов
Расположение каналов : Front: L C R, Side: L R, LFE
Частота : 48,0 КГц
Битовая глубина : 16 бит
Метод сжатия : С потерями
Размер потока : 333 Мбайт (15%)
Язык : English
Default : Да
Forced : Нет

Текст
Идентификатор : 3
Формат : UTF-8
Идентификатор кодека : S_TEXT/UTF8
Идентификатор кодека/Информация : UTF-8 Plain Text
Язык : English
Default : Да
Forced : Нет



Информация
Информация Скриншоты Пиры Скачавшие Список файлов
Залил Оценка Просмотров Скачан Файлов
АРХАНГЕЛ 0 669581

Теги
ужасы, фантастика, триллер

Похожие раздачи

Heavy Metal / Химера - Хищник / 2003 / MP3 / 320 kbps 69.82 MB

(Heavy Metal) Химера - Агония - 2005, APE (image + .cue) 272.52 MB

Больше похожих раздач →

Список комментариев
:: В сети АРХАНГЕЛ :: Администратор :: 15 февраля 2014 в 01:12:56
0
Проголосуй 1 раз в сутки за наш сайт на http://www.image.kg/images/2014/02/11/rWXqZ.gif и получи 100 бонусов.
Количество страниц: 1 | На страничку (строк): 20 | Всего данных: 1

Добавить комментарий
Внимание
Гости не могут оставлять комментарии, авторизуйтесь.

Панель навигации

ПОПУЛЯРНЫЕ РАЗДАЧИ
скачать торрент Ледокол (2016) WEB-DLRip | iTunesскачать торрент Доктор Стрэндж (2016) TS
скачать торрент Ледокол (2016) WEB-DL 1080p | iTunesскачать торрент Дуэлянт (2016) CAMRip
скачать торрент Отряд самоубийц (2016) BDRip 1080p | Расширeнная версия | iTunesскачать торрент Джейсон Борн (2016) HDTV 720p | Чистый звук
скачать торрент Первый мститель: Противостояние (2016) BDRip | IMAX Edition | iTunesскачать торрент Тарзан. Легенда (2016) HDRip | iTunes
скачать торрент Полтора шпиона (2016) BDRip 1080p | Лицензияскачать торрент Джейсон Борн (2016) HDTV 1080p | Чистый звук

Будь с нами!


Наши друзья 



Информация, расположенная на данном сервере, предназначена исключительно для частного использования и не может быть загружена/перенесена на другой компьютер. Ни владелец сайта, ни хостинг-провайдер, ни любые другие физические или юридические лица не могут нести никакой отвественностиза любое использование материалов данного сайта.

© 2012-2016 TRACK.KG.