Загрузить Adobe Flash Player
Как тут качать? :: Как встать на раздачу?

Скачать / Download torrent  
Хэш: dd2ab477a1c862dead85407b6d828fcac7d354f5
Добавлен: 14 февраля 2014 в 14:16:32
Категория: Фильмы » Зарубежное кино » Ужасы
Размер: 1.57 GB
Проверил: АРХАНГЕЛ 14 февраля 2014 в 14:16:32

Раздают: 28 Качают: 16

Человеческий род / The Human Race (2013) HDRip-AVC | L1

Название: Человеческий род
Оригинальное название: The Human Race

Год выхода: 2013
Страна: США / Paul Hough Entertainment
Жанр: ужасы, фантастика, боевик
Перевод: Любительский (одноголосый) Xixidok
Оригинальная аудиодорожка: английский
Субтитры: русские ХиХидок

Режиссер: Пол Хью / Paul Hough
В ролях: Пол МакКарти-Бойингтон (Justin), Эдди МакГи (Eddie), Триста Робинсон (Deaf Female), T. Arthur Cottam (Deaf Male), Брианна Лорен Джексон (Veronica), Фред Каури (Yellow Jersey), Б. Энтони Коэн (The Priest), Ноэль Бриттон (Stressed Out), Джим Рейд (War Vet), Селин Тиен (Ting), Йен Тиен (Shio Lau), Ричард Гэйл (Evil Brother)

О фильме: Вероника внезапно оказывается участницей нереально ужасного марафонского забега. Правила просты: если вы уклоняетесь — вы умираете, если вы сходите с дистанции — вы умираете. Многие начинают стартовать, но только один из них сможет пересечь финишную черту живым.

pic pic pic pic

Качество:HDRip-AVC (исх. BDRip 720p)
Формат: MKV
Продолжительность: 01:27:20
Видео: H.264/MPEG4 AVC, 1024 x 576, ~1814 kbps
Звук: Русский:AC-3, 2 ch, 256 kbps / Английский: AC-3, 6 ch, 448 kbps
Общее
Уникальный идентификатор : 168348648403719580577546155723716462494 (0x7EA6C532C2870C1E037BA147C20E879E)
Полное имя : G:\ДИСК 2\The.Human.Race.2013.HDRip-AVC.mkv
Формат : Matroska
Версия формата : Version 2
Размер файла : 1,57 Гбайт
Продолжительность : 1 ч. 27 м.
Режим общего битрейта : Переменный
Общий поток : 2569 Кбит/сек
Программа кодирования : Lavf51.12.1
Библиотека кодирования : Lavf51.12.1

Видео
Идентификатор : 1
Формат : AVC
Формат/Информация : Advanced Video Codec
Профиль формата : Baseline@L3.1
Параметр CABAC формата : Нет
Параметр ReFrames формата : 1 кадр
Параметр GOP формата : M=1, N=12
Идентификатор кодека : V_MPEG4/ISO/AVC
Продолжительность : 1 ч. 27 м.
Вид битрейта : Переменный
Битрейт : 1814 Кбит/сек
Максимальный битрейт : 2790 Кбит/сек
Ширина : 1024 пикселя
Высота : 576 пикселей
Соотношение сторон : 16:9
Режим частоты кадров : Постоянный
Частота кадров : 23,976 кадра/сек
Частота кадров в оригинале : 24,000 кадра/сек
Цветовое пространство : YUV
Субдискретизация насыщенности : 4:2:0
Битовая глубина : 8 бит
Тип развёртки : Прогрессивная
Бит/(Пиксели*Кадры) : 0.128
Размер потока : 1,11 Гбайт (71%)
Язык : English
Default : Да
Forced : Нет

Аудио #1
Идентификатор : 2
Формат : AC-3
Формат/Информация : Audio Coding 3
Расширение режима : CM (complete main)
Параметр Endianness формата : Big
Идентификатор кодека : A_AC3
Продолжительность : 1 ч. 27 м.
Вид битрейта : Постоянный
Битрейт : 256 Кбит/сек
Каналы : 2 канала
Расположение каналов : Front: L R
Частота : 48,0 КГц
Битовая глубина : 16 бит
Метод сжатия : С потерями
Размер потока : 160 Мбайт (10%)
Язык : Russian
Default : Да
Forced : Нет

Аудио #2
Идентификатор : 4
Формат : AC-3
Формат/Информация : Audio Coding 3
Расширение режима : CM (complete main)
Параметр Endianness формата : Big
Идентификатор кодека : A_AC3
Продолжительность : 1 ч. 27 м.
Вид битрейта : Постоянный
Битрейт : 448 Кбит/сек
Каналы : 6 каналов
Расположение каналов : Front: L C R, Side: L R, LFE
Частота : 48,0 КГц
Битовая глубина : 16 бит
Метод сжатия : С потерями
Размер потока : 280 Мбайт (17%)
Язык : English
Default : Да
Forced : Нет

Текст
Идентификатор : 3
Формат : UTF-8
Идентификатор кодека : S_TEXT/UTF8
Идентификатор кодека/Информация : UTF-8 Plain Text
Язык : Russian
Default : Да
Forced : Нет



Информация
Информация Скриншоты Пиры Скачавшие Список файлов
Залил Оценка Просмотров Скачан Файлов
АРХАНГЕЛ 0 515611

Теги
ужасы, фантастика, боевик

Похожие раздачи

Человеческий род / The Human Race (2013) HDRip | L1 1.45 GB

Человеческий род / The Human Race (2013) BDRip 720p 4.47 GB

Человеческий род / The Human Race (2013) [ужасы, фантастика, боевик] DVDRip-AVC | VO {Xixidok} + Eng 1.58 GB

Больше похожих раздач →

Список комментариев
:: Не в сети АРХАНГЕЛ :: Администратор :: 14 февраля 2014 в 14:25:46
0
Проголосуй 1 раз в сутки за наш сайт на http://www.image.kg/images/2014/02/11/rWXqZ.gif и получи 100 бонусов.
Количество страниц: 1 | На страничку (строк): 20 | Всего данных: 1

Добавить комментарий
Внимание
Гости не могут оставлять комментарии, авторизуйтесь.

Панель навигации

ПОПУЛЯРНЫЕ РАЗДАЧИ
скачать торрент Ледокол (2016) WEB-DLRip | iTunesскачать торрент Доктор Стрэндж (2016) TS
скачать торрент Ледокол (2016) WEB-DL 1080p | iTunesскачать торрент Дуэлянт (2016) CAMRip
скачать торрент Отряд самоубийц (2016) BDRip 1080p | Расширeнная версия | iTunesскачать торрент Джейсон Борн (2016) HDTV 720p | Чистый звук
скачать торрент Первый мститель: Противостояние (2016) BDRip | IMAX Edition | iTunesскачать торрент Тарзан. Легенда (2016) HDRip | iTunes
скачать торрент Dark Souls 3: Deluxe Edition (2016) PC | RePack от xatabскачать торрент Люди Икс: Апокалипсис / X-Men: Apocalypse (2016) BDRip 720p | Лицензия

Будь с нами!


Наши друзья 



Информация, расположенная на данном сервере, предназначена исключительно для частного использования и не может быть загружена/перенесена на другой компьютер. Ни владелец сайта, ни хостинг-провайдер, ни любые другие физические или юридические лица не могут нести никакой отвественностиза любое использование материалов данного сайта.

© 2012-2016 TRACK.KG.