Загрузить Adobe Flash Player
Как тут качать? :: Как встать на раздачу?

Скачать / Download torrent  
Хэш: 6048a6f3d0414c43b4ef2579dce8708294052001
Добавлен: 16 ноября 2013 в 12:07:15
Категория: Фильмы » Зарубежное кино » Триллеры / Криминал
Размер: 2.18 GB
Проверил: АРХАНГЕЛ 16 ноября 2013 в 12:07:15

Раздают: 0 Качают: 0

Зной Явы / Java Heat (2013) [боевик триллер, драма, криминал] BDRip-AVC | VO {den904} + Eng

pic


pic
Год выхода: 2013
Страна: США / Margate House, Margate House Films
Жанр: боевик триллер, драма, криминал
Перевод: Любительский одноголосый закадровый [den904]
Оригинальная аудиодорожка: Английский

Режиссер: Конор Эллин
В ролях: Келлан Лутс, Микки Рурк, Майкл Дункан, Франс Тамбуан....

О фильме: В картине речь идет о молодом американце по имени Джейк, который приезжает в Юго-Восточную Азию, чтобы сражаться с исламскими террористами. В компании с местным детективом-мусульманином он преследует изобретательного вора, который специально организовывает взрывы и похищения, чтобы осуществлять кражи драгоценностей, произведений искусства, а также маленьких мальчиков и даже одной принцессы.


pic pic pic pic pic

Качество: BDRip-AVC
Формат: MKV
Продолжительность: 01:43:46
Видео: MPEG-4 AVC/H.264, 1024x436, 23.976 fps, ~ 2107 kbps avg, 0.193 bit/pixel
Звук: Русский / Английский: (Dolby AC3, 6 ch) 448 Кбит/сек


Общее
Уникальный идентификатор : 215279909307369625091047747506548647672 (0xA1F567021D1E4012997896B63CEA26F8)
Полное имя : H:Znoj.Javy.2013.L1.x264.BDRip-MysTeRy.mkv
Формат : Matroska
Версия формата : Version 4 / Version 2
Размер файла : 2,18 Гбайт
Продолжительность : 1 ч. 43 м.
Общий поток : 3005 Кбит/сек
Название фильма : Znoj.Javy.2013.L1.x264.BDRip-MysTeRy
Дата кодирования : UTC 2013-03-17 05:16:12
Программа кодирования : mkvmerge v6.1.0 ('Old Devil') built on Mar 2 2013 14:32:37
Библиотека кодирования : libebml v1.3.0 + libmatroska v1.4.0

Видео
Идентификатор : 1
Формат : AVC
Формат/Информация : Advanced Video Codec
Профиль формата : High@L4.1
Параметр CABAC формата : Да
Параметр ReFrames формата : 12 кадров
Идентификатор кодека : V_MPEG4/ISO/AVC
Продолжительность : 1 ч. 43 м.
Битрейт : 2107 Кбит/сек
Ширина : 1024 пикселя
Высота : 436 пикселей
Соотношение сторон : 2,35:1
Частота кадров : 23,976 кадра/сек
Цветовое пространство : YUV
Субдискретизация насыщенности : 4:2:0
Битовая глубина : 8 бит
Тип развёртки : Прогрессивная
Бит/(Пиксели*Кадры) : 0.197
Размер потока : 1,49 Гбайт (68%)
Заголовок : ENCODER........: MysTeRy
Библиотека кодирования : x264 core 130 r2273 b3065e6
Настройки программы : cabac=1 / ref=12 / deblock=1:-3:-3 / analyse=0x3:0x133 / me=umh / subme=11 / psy=1 / psy_rd=1.00:0.00 / mixed_ref=1 / me_range=32 / chroma_me=1 / trellis=2 / 8x8dct=1 / cqm=0 / deadzone=21,11 / fast_pskip=0 / chroma_qp_offset=-2 / threads=12 / lookahead_threads=2 / sliced_threads=0 / nr=0 / decimate=0 / interlaced=0 / bluray_compat=0 / constrained_intra=0 / bframes=8 / b_pyramid=2 / b_adapt=2 / b_bias=0 / direct=3 / weightb=1 / open_gop=0 / weightp=2 / keyint=250 / keyint_min=23 / scenecut=40 / intra_refresh=0 / rc_lookahead=60 / rc=2pass / mbtree=0 / bitrate=2107 / ratetol=1.0 / qcomp=0.70 / qpmin=0 / qpmax=69 / qpstep=4 / cplxblur=20.0 / qblur=0.5 / vbv_maxrate=50000 / vbv_bufsize=61400 / nal_hrd=none / ip_ratio=1.40 / pb_ratio=1.30 / aq=2:0.80
Язык : English
Default : Да
Forced : Нет
Основные цвета : BT.709-5, BT.1361, IEC 61966-2-4, SMPTE RP177
Характеристики трансфера : BT.709-5, BT.1361
Коэффициенты матрицы : BT.709-5, BT.1361, IEC 61966-2-4 709, SMPTE RP177

Аудио #1
Идентификатор : 2
Формат : AC-3
Формат/Информация : Audio Coding 3
Расширение режима : CM (complete main)
Идентификатор кодека : A_AC3
Продолжительность : 1 ч. 43 м.
Вид битрейта : Постоянный
Битрейт : 448 Кбит/сек
Каналы : 6 каналов
Расположение каналов : Front: L C R, Side: L R, LFE
Частота : 48,0 КГц
Битовая глубина : 16 бит
Метод сжатия : С потерями
Размер потока : 333 Мбайт (15%)
Заголовок : [den904]
Язык : Russian
Default : Да
Forced : Нет

Аудио #2
Идентификатор : 3
Формат : AC-3
Формат/Информация : Audio Coding 3
Расширение режима : CM (complete main)
Идентификатор кодека : A_AC3
Продолжительность : 1 ч. 43 м.
Вид битрейта : Постоянный
Битрейт : 448 Кбит/сек
Каналы : 6 каналов
Расположение каналов : Front: L C R, Side: L R, LFE
Частота : 48,0 КГц
Битовая глубина : 16 бит
Метод сжатия : С потерями
Размер потока : 333 Мбайт (15%)
Заголовок : Original
Язык : English
Default : Нет
Forced : Нет

Меню
00:00:00.000 : de:00:00:00.000
00:00:58.267 : de:00:00:58.267
00:10:54.237 : de:00:10:54.237
00:18:57.636 : de:00:18:57.636
00:31:08.158 : de:00:31:08.158
00:41:59.934 : de:00:41:59.934
00:50:22.937 : de:00:50:22.937
01:00:12.943 : de:01:00:12.943
01:09:59.320 : de:01:09:59.320
01:21:57.621 : de:01:21:57.621
01:35:30.308 : de:01:35:30.308
01:38:19.769 : de:01:38:19.769


picpic

pic


Информация
Информация Скриншоты Пиры Скачавшие Список файлов
Залил Оценка Просмотров Скачан Файлов
АРХАНГЕЛ 0 437311

Теги
боевик триллер, драма, криминал

Похожие раздачи

Зной Явы / Java Heat (2013) [боевик, триллер, драма, криминал] BDRip | VO 1.06 GB

Зной Явы / Java Heat (2013) [боевик, триллер, драма, криминал] HDRip | VO {den904} 1.46 GB

Больше похожих раздач →

Список комментариев
Комментарии отсутствуют

Добавить комментарий
Внимание
Гости не могут оставлять комментарии, авторизуйтесь.

Панель навигации

ПОПУЛЯРНЫЕ РАЗДАЧИ
скачать торрент Ледокол (2016) WEB-DLRip | iTunesскачать торрент Доктор Стрэндж (2016) TS
скачать торрент Ледокол (2016) WEB-DL 1080p | iTunesскачать торрент Дуэлянт (2016) CAMRip
скачать торрент Отряд самоубийц (2016) BDRip 1080p | Расширeнная версия | iTunesскачать торрент Джейсон Борн (2016) HDTV 720p | Чистый звук
скачать торрент Первый мститель: Противостояние (2016) BDRip | IMAX Edition | iTunesскачать торрент Тарзан. Легенда (2016) HDRip | iTunes
скачать торрент Dark Souls 3: Deluxe Edition (2016) PC | RePack от xatabскачать торрент Люди Икс: Апокалипсис / X-Men: Apocalypse (2016) BDRip 720p | Лицензия

Будь с нами!


Наши друзья 



Информация, расположенная на данном сервере, предназначена исключительно для частного использования и не может быть загружена/перенесена на другой компьютер. Ни владелец сайта, ни хостинг-провайдер, ни любые другие физические или юридические лица не могут нести никакой отвественностиза любое использование материалов данного сайта.

© 2012-2016 TRACK.KG.