Загрузить Adobe Flash Player
Как тут качать? :: Как встать на раздачу?

Скачать / Download torrent  
Хэш: 2d247562c460932f3a17ad37a560f8685ac75f18
Добавлен: 7 октября 2013 в 23:50:51
Категория: Фильмы » Зарубежное кино » Триллеры / Криминал
Размер: 1.44 GB
Проверил: megaseed 7 октября 2013 в 23:50:51

Раздают: 57 Качают: 15

Улики / Evidence (2013) [Триллер, Ужасы] HDRip | Dub

Название: Улики
Оригинальное название: Evidence
Год выхода: 2013
Жанр: триллер, ужасы

Режиссер: Олатунде Осунсанми
В ролях: Рада Митчелл, Стивен Мойер, Нолан Фанк, Торри ДеВито, Кейтлин Стэйси, Кристофер Александр, Дэйл Дикки, Амел Амин, Гарри Дж. Ленникс, Джон Хеймс Ньютон

О фильме: В автобусе, направлявшемся в Лас-Вегас, совершено жестокое убийство. На месте преступления - ни одного уцелевшего. Только несколько трупов и хаотичный набор мобильных телефонов, карманных видеокамер и других устройств, оставшихся от потерпевших. Детектив, которому поручено расследование, с помощью сохранившихся записей пытается восстановить цепь загадочных событий, приведших к трагедии.

Выпущено: США
Продолжительность: 01:33:56
Перевод: Профессиональный (дублированный)
Субтитры: нет

Качество: HDRip
Формат: AVI
Видео: Xvid 720x304 23.98fps 1999Kbps
Звук: Dolby AC3 48000Hz stereo 192Kbps

Идентификатор : 0
Формат : MPEG-4 Visual
Профиль формата : Advanced Simple@L5
Параметр BVOP формата : 1
Параметр QPel формата : Нет
Параметр GMC формата : Без точки перехода
Параметр матрицы формата : Выборочная
Идентификатор кодека : XVID
Идентификатор кодека/Подсказка : XviD
Продолжительность : 1 ч. 33 м.
Битрейт : 1999 Кбит/сек
Ширина : 720 пикселей
Высота : 304 пикселя
Соотношение сторон : 2,35:1
Частота кадров : 23,976 кадра/сек
Цветовое пространство : YUV
Субдискретизация насыщенности : 4:2:0
Битовая глубина : 8 бит
Тип развёртки : Прогрессивная
Метод сжатия : С потерями
Бит/(Пиксели*Кадры) : 0.381
Размер потока : 1,31 Гбайт (91%)
Библиотека кодирования : XviD 73

Аудио
Идентификатор : 1
Формат : AC-3
Формат/Информация : Audio Coding 3
Расширение режима : CM (complete main)
Параметр Endianness формата : Big
Идентификатор кодека : 2000
Продолжительность : 1 ч. 33 м.
Вид битрейта : Постоянный
Битрейт : 192 Кбит/сек
Каналы : 2 канала
Расположение каналов : Front: L R
Частота : 48,0 КГц
Битовая глубина : 16 бит
Метод сжатия : С потерями
Размер потока : 129 Мбайт (9%)
Выравнивание : Разделение по промежуткам
Продолжительность промежутка : 42 мс. (1,00 видеокадр)
Время предзагрузки промежутка : 500 мс.


pic


Информация
Информация Скриншоты Пиры Скачавшие Список файлов
Залил Оценка Просмотров Скачан Файлов
megaseed 0 384421

Теги
триллер, ужасы

Похожие раздачи

Без единой улики / Without A Clue (1988) DVDRip-AVC | Dub, Р, Р2 2.27 GB

Улики / Evidence (2013) [Триллер, Ужасы] WEB-DLRip-AVC | Dub + Original Eng + Sub {Eng} 1.79 GB

Улики / Evidence (2013) [Триллер, Ужасы] WEB-DL 1080p | Dub + Original Eng + Sub {Eng} 3.58 GB

Улики / Evidence (2013) [триллер, ужасы] WEB-DLRip | VO {lord666} 1.37 GB

Больше похожих раздач →

Список комментариев
Комментарии отсутствуют

Добавить комментарий
Внимание
Гости не могут оставлять комментарии, авторизуйтесь.

Панель навигации

ПОПУЛЯРНЫЕ РАЗДАЧИ
скачать торрент Ледокол (2016) WEB-DLRip | iTunesскачать торрент Доктор Стрэндж (2016) TS
скачать торрент Ледокол (2016) WEB-DL 1080p | iTunesскачать торрент Дуэлянт (2016) CAMRip
скачать торрент Отряд самоубийц (2016) BDRip 1080p | Расширeнная версия | iTunesскачать торрент Джейсон Борн (2016) HDTV 720p | Чистый звук
скачать торрент Первый мститель: Противостояние (2016) BDRip | IMAX Edition | iTunesскачать торрент Тарзан. Легенда (2016) HDRip | iTunes
скачать торрент Полтора шпиона (2016) BDRip 1080p | Лицензияскачать торрент Джейсон Борн (2016) HDTV 1080p | Чистый звук

Будь с нами!


Наши друзья 



Информация, расположенная на данном сервере, предназначена исключительно для частного использования и не может быть загружена/перенесена на другой компьютер. Ни владелец сайта, ни хостинг-провайдер, ни любые другие физические или юридические лица не могут нести никакой отвественностиза любое использование материалов данного сайта.

© 2012-2016 TRACK.KG.