Загрузить Adobe Flash Player
Как тут качать? :: Как встать на раздачу?

Скачать / Download torrent  
Хэш: db6fb836af165c3dcdceb548981c3025fe89961a
Добавлен: 2 октября 2013 в 15:46:07
Категория: Фильмы » Зарубежное кино » Боевики
Размер: 1.37 GB
Проверил: megaseed 2 октября 2013 в 15:46:07

Раздают: 57 Качают: 15

Наемный убийца / Bounty Killer (2013) [Боевик] WEB-DLRip | MVO

Название: Наемный убийца
Оригинальное название: Bounty Killer
Год выхода: 2013
Жанр: Боевик

Режиссер: Генри Сэйн / Henry Saine
В ролях: Мэттью Мэрсден, Кристанна Локен, Кристиан Питре, Барак Хардли, Абрахам Бенруби, Гэри Бьюзи, Беверли Д’Анджело, Ив, Кевин МакНэлли, Алекса Вега

О фильме: Спустя двадцать лет после начала Корпоративной Мировой войны, некогда цветущая и плодородная планета превратилась в выжженную пустыню, усеянную полуразрушенными останками людских поселений. Среди непрекращающейся тьмы и разрухи на свет появился Совет Девяти Роз, призванный уничтожить всё, что хоть отдалённо напоминает о корпорациях. Так началась эпоха наёмных убийц, охотящихся за «белыми воротничками».

Выпущено: США
Продолжительность: 01:28:47
Перевод: Профессиональный (многоголосый закадровый)
Субтитры: нет

Качество: WEB-DLRip
Формат: AVI
Видео: Xvid, 720x400 (16:9), 25.000 кадр/сек, ~ 2002 Кбит/сек
Звук: AC3, 48,0 КГц, 192 Кбит/сек, 2.0 [ru]

General
Complete name : D:DATANaemnyj.ybijca.2013.P.WEBRip.1400MB.avi
Format : AVI
Format/Info : Audio Video Interleave
File size : 1.37 GiB
Duration : 1h 28mn
Overall bit rate : 2 204 Kbps
Writing application : VirtualDubMod 1.5.10.3 | www.virtualdub-fr.org || (build 2550/release)
Writing library : VirtualDubMod build 2550/release

Video
ID : 0
Format : MPEG-4 Visual
Format profile : Advanced Simple@L5
Format settings, BVOP : 2
Format settings, QPel : No
Format settings, GMC : No warppoints
Format settings, Matrix : Default (MPEG)
Codec ID : XVID
Codec ID/Hint : XviD
Duration : 1h 28mn
Bit rate : 2 002 Kbps
Width : 720 pixels
Height : 400 pixels
Display aspect ratio : 16:9
Frame rate : 25.000 fps
Color space : YUV
Chroma subsampling : 4:2:0
Bit depth : 8 bits
Scan type : Progressive
Compression mode : Lossy
Bits/(Pixel*Frame) : 0.278
Stream size : 1.24 GiB (91%)
Writing library : XviD 1.2.1 (UTC 2008-12-04)

Audio
ID : 1
Format : AC-3
Format/Info : Audio Coding 3
Mode extension : CM (complete main)
Format settings, Endianness : Big
Codec ID : 2000
Duration : 1h 28mn
Bit rate mode : Constant
Bit rate : 192 Kbps
Channel count : 2 channels
Channel positions : Front: L R
Sampling rate : 48.0 KHz
Bit depth : 16 bits
Compression mode : Lossy
Stream size : 122 MiB (9%)
Alignment : Split accross interleaves
Interleave, duration : 40 ms (1.00 video frame)
Interleave, preload duration : 500 ms


pic


Информация
Информация Скриншоты Пиры Скачавшие Список файлов
Залил Оценка Просмотров Скачан Файлов
megaseed +1 763621

Теги
боевик

Похожие раздачи

Наемный убийца / Bounty Killer (2013) [фантастика, боевик, триллер] HDRip-AVC | MVO + Eng 1.62 GB

Наемный Убийца: Испытание Снайпера / Hitman: Sniper Challenge (2012) [Action ( Shooter ) / 1st person / 3rd person / 3D ] Rus|En 1.12 GB

Больше похожих раздач →

Список комментариев
Комментарии отсутствуют

Добавить комментарий
Внимание
Гости не могут оставлять комментарии, авторизуйтесь.

Панель навигации

ПОПУЛЯРНЫЕ РАЗДАЧИ
скачать торрент Пассажиры (2016) TSскачать торрент Доктор Стрэндж (2016) TS
скачать торрент Отряд самоубийц (2016) BDRip 1080p | Расширeнная версия | iTunesскачать торрент Плохой Санта 2 (2016) WEB-DLRip | iTunes
скачать торрент Первый мститель: Противостояние (2016) BDRip | IMAX Edition | iTunesскачать торрент Джейсон Борн (2016) HDTV 1080p | Чистый звук
скачать торрент Любовь не по размеру (2016) BDRip | Лицензияскачать торрент Глубоководный горизонт (2016) HDRip | iTunes
скачать торрент Волки и овцы: бе-е-е-зумное превращение (2016) WEB-DLRip | Лицензияскачать торрент Голограмма для короля (2016) HDRip | Лицензия

Будь с нами!


Наши друзья 



Информация, расположенная на данном сервере, предназначена исключительно для частного использования и не может быть загружена/перенесена на другой компьютер. Ни владелец сайта, ни хостинг-провайдер, ни любые другие физические или юридические лица не могут нести никакой отвественностиза любое использование материалов данного сайта.

© 2012-2017 TRACK.KG.