Загрузить Adobe Flash Player
Как тут качать? :: Как встать на раздачу?

Скачать / Download torrent  
Хэш: f2ea37081ee14a9356ae10665f7ab9e1f9f646bc
Добавлен: 2 октября 2013 в 00:26:59
Категория: Фильмы » Зарубежное кино » Комедии / Пародийные
Размер: 1.46 GB
Проверил: megaseed 2 октября 2013 в 00:26:59

Раздают: 57 Качают: 15

Помолвка понарошку / One Small Hitch (2013) [комедия, мелодрама] HDTVRip | MVO

Название: Помолвка понарошку
Оригинальное название: One Small Hitch
Год выхода: 2013
Жанр: комедия, мелодрама

Режиссер: Джон Берджесс / John Burgess
В ролях: Шейн МакРей, Обри Доллар, Дэниел Дж. Траванти, Джанет Ульрих Брукс, Роберт Белуши, Ребекка Спенс, Рон Дин

О фильме: Друзья детства Джош и Молли выросли в Чикаго, но давно уже перебрались в Лос-Анджелес. Мать Молли вновь собралась замуж и пригласила на свадьбу их обоих. Как назло, и Джош, и Молли недавно расстались со своими возлюбленными. Чтобы не расстраивать родителей, они решили им сказать, что помолвлены. Но их шутка превратилась в нечто большее...

Выпущено: США
Продолжительность: 01:40:29
Перевод: Профессиональный (многоголосый закадровый)
Субтитры: нет

Качество: HDTVRip
Формат: AVI
Видео: 720x400 (1.80:1), 25 fps, XviD build 50 ~1876 kbps avg, 0.26 bit/pixel
Звук: 48 kHz, AC3 Dolby Digital, 2/0 (L,R) ch, ~192 kbps [ru]

Общее
Полное имя : D:Pomolvka.ponaroshky_2013.HDTVRip.avi
Формат : AVI
Формат/Информация : Audio Video Interleave
Размер файла : 1,46 Гбайт
Продолжительность : 1 ч. 40 м.
Общий поток : 2078 Кбит/сек
Программа кодирования : VirtualDubMod 1.5.10.2 (build 2540/release)
Библиотека кодирования : VirtualDubMod build 2540/release

Видео
Идентификатор : 0
Формат : MPEG-4 Visual
Профиль формата : Advanced Simple@L5
Параметр BVOP формата : 2
Параметр QPel формата : Нет
Параметр GMC формата : Без точки перехода
Параметр матрицы формата : Default (MPEG)
Идентификатор кодека : XVID
Идентификатор кодека/Подсказка : XviD
Продолжительность : 1 ч. 40 м.
Битрейт : 1877 Кбит/сек
Ширина : 720 пикселей
Высота : 400 пикселей
Соотношение сторон : 16:9
Частота кадров : 25,000 кадров/сек
Цветовое пространство : YUV
Субдискретизация насыщенности : 4:2:0
Битовая глубина : 8 бит
Тип развёртки : Прогрессивная
Метод сжатия : С потерями
Бит/(Пиксели*Кадры) : 0.261
Размер потока : 1,32 Гбайт (90%)
Библиотека кодирования : XviD 1.2.1 (UTC 2008-12-04)

Аудио
Идентификатор : 1
Формат : AC-3
Формат/Информация : Audio Coding 3
Расширение режима : CM (complete main)
Параметр Endianness формата : Big
Идентификатор кодека : 2000
Продолжительность : 1 ч. 40 м.
Вид битрейта : Постоянный
Битрейт : 192 Кбит/сек
Каналы : 2 канала
Расположение каналов : Front: L R
Частота : 48,0 КГц
Битовая глубина : 16 бит
Метод сжатия : С потерями
Размер потока : 138 Мбайт (9%)
Выравнивание : Разделение по промежуткам
Продолжительность промежутка : 40 мс. (1,00 видеокадр)
Время предзагрузки промежутка : 500 мс.


pic


Информация
Информация Скриншоты Пиры Скачавшие Список файлов
Залил Оценка Просмотров Скачан Файлов
megaseed +1 788661

Теги
комедия, мелодрама

Похожие раздачи

Поиск не дал результатов.Больше похожих раздач →

Список комментариев
Комментарии отсутствуют

Добавить комментарий
Внимание
Гости не могут оставлять комментарии, авторизуйтесь.

Панель навигации

ПОПУЛЯРНЫЕ РАЗДАЧИ
скачать торрент Ледокол (2016) WEB-DLRip | iTunesскачать торрент Ледокол (2016) WEB-DL 1080p | iTunes
скачать торрент Дуэлянт (2016) CAMRipскачать торрент Отряд самоубийц (2016) BDRip 1080p | Расширeнная версия | iTunes
скачать торрент Джейсон Борн (2016) HDTV 720p | Чистый звукскачать торрент Первый мститель: Противостояние (2016) BDRip | IMAX Edition | iTunes
скачать торрент Тарзан. Легенда (2016) HDRip | iTunesскачать торрент Dark Souls 3: Deluxe Edition (2016) PC | RePack от xatab
скачать торрент Люди Икс: Апокалипсис / X-Men: Apocalypse (2016) BDRip 720p | Лицензияскачать торрент Полтора шпиона (2016) BDRip 1080p | Лицензия

Будь с нами!


Наши друзья 



Информация, расположенная на данном сервере, предназначена исключительно для частного использования и не может быть загружена/перенесена на другой компьютер. Ни владелец сайта, ни хостинг-провайдер, ни любые другие физические или юридические лица не могут нести никакой отвественностиза любое использование материалов данного сайта.

© 2012-2016 TRACK.KG.