Загрузить Adobe Flash Player
Как тут качать? :: Как встать на раздачу?

Скачать / Download torrent  
Хэш: fb788c82126573dc456e3725c5cafd017d56690e
Добавлен: 29 сентября 2013 в 14:10:34
Категория: Фильмы » Фильмы HD / BD
Размер: 4.87 GB
Проверил: Хозяин судьбы 29 сентября 2013 в 15:58:00

Раздают: 0 Качают: 0

Я плюю на ваши могилы 2 / I Spit On Your Grave 2 (2013) [Триллер, Ужасы, Криминал] BDRip 720p | Unrated Cut | MVO + VO + Origina

Название: Я плюю на ваши могилы 2
Оригинальное название: I Spit On Your Grave 2
Год выхода: 2013
Жанр: Ужасы, Драма, Криминал

Режиссер: Стивен Р. Монро
В ролях: Джемма Даллендер, Джо Эбсолом, Явор Бахаров, Александр Алексеев, Мэри Стокли, Майкл Диксон, Валентайн Пелка, Питер Сильверлиф, Джордж Златарев, Георгий Златарев

О фильме: Красавица Кэти только что переехала в Нью-Йорк, чтобы сделать карьеру модели. Но девичьи мечты о роскошной жизни разбиваются: ее насилуют, пытают, а вскоре похищают и увозят в непонятном направлении. Кэти оказывается одна в чужой стране, где ее почти что похоронят заживо. Чудом избежав смерти, девушка решает жестоко отомстить обидчикам…

Выпущено: США / Cinetel Films
Продолжительность: 01:46:11
Перевод: Многоголосый закадровый, любительский + одноголосый любительский (A.Белоконь) + одноголосый любительский (den904)
Субтитры: Вшитые отключаемые,Английский (Full, SDH, SDH-Colored), Испанский

Качество: BDRip 720p
Формат: MKV
Видео: AVC , 1280x534, 23,976 fps, 4830 Кбит/сек
Аудио #1: AC-3, 6 каналов, 384 Кбит/с, частота: 48.0 KHz | MVO
Аудио #2: AC3, 6 каналов, 384 Кбит/с, 48.0 KHz | VO [A.Белоконь]
Аудио #3: AC-3, 2 каналов, 192 Кбит/с, 48.0 KHz | VO [den904]
Аудио #4: AC-3, 6 каналов, 640 Кбит/с, 48.0 KHz | ENG

Уникальный идентификатор : 186411620287118213699587749497264572293 (0x8C3D92785FE4D83BB029B50B588A8785)
Полное имя : H:Я плюю на ваши могилы 2 I Spit on Your Grave 2 (2013) BDRipI.Spit.On.Your.Grave.2.2013.UNRATED.BDRip.720p.NNM-CLUB.mkv
Формат : Matroska
Версия формата : Version 2
Размер файла : 4,87 Гбайт
Продолжительность : 1 ч. 46 м.
Общий поток : 6560 Кбит/сек
Название фильма : I Spit on Your Grave 2 2013 Unrated 720p BluRay DD5.1 x264-TayTO
Дата кодирования : UTC 2013-09-12 23:29:35
Программа кодирования : mkvmerge v2.9.9 ('Tutu') built on Nov 25 2009 21:13:32
Библиотека кодирования : libebml v0.7.9 + libmatroska v0.8.1

Видео
Идентификатор : 1
Формат : AVC
Формат/Информация : Advanced Video Codec
Профиль формата : High@L4.1
Параметр CABAC формата : Да
Параметр ReFrames формата : 12 кадров
Идентификатор кодека : V_MPEG4/ISO/AVC
Продолжительность : 1 ч. 46 м.
Битрейт : 4830 Кбит/сек
Ширина : 1280 пикселей
Высота : 534 пикселя
Соотношение сторон : 2,40:1
Режим частоты кадров : Постоянный
Частота кадров : 23,976 кадра/сек
Цветовое пространство : YUV
Субдискретизация насыщенности : 4:2:0
Битовая глубина : 8 бит
Тип развёртки : Прогрессивная
Бит/(Пиксели*Кадры) : 0.295
Размер потока : 3,58 Гбайт (74%)
Заголовок : -=Release for NNM-CLUB.RU=-
Язык : English
Default : Нет
Forced : Нет
Коэффициенты матрицы : BT.709

Аудио #1
Идентификатор : 2
Формат : AC-3
Формат/Информация : Audio Coding 3
Расширение режима : CM (complete main)
Параметр Endianness формата : Big
Идентификатор кодека : A_AC3
Продолжительность : 1 ч. 46 м.
Вид битрейта : Постоянный
Битрейт : 384 Кбит/сек
Каналы : 6 каналов
Расположение каналов : Front: L C R, Side: L R, LFE
Частота : 48,0 КГц
Битовая глубина : 16 бит
Метод сжатия : С потерями
Размер потока : 292 Мбайт (6%)
Заголовок : AC3.384Kbps (6ch) Russian (MVO)
Язык : Russian
Default : Да
Forced : Нет

Аудио #2
Идентификатор : 3
Формат : AC-3
Формат/Информация : Audio Coding 3
Расширение режима : CM (complete main)
Параметр Endianness формата : Big
Идентификатор кодека : A_AC3
Продолжительность : 1 ч. 46 м.
Вид битрейта : Постоянный
Битрейт : 384 Кбит/сек
Каналы : 6 каналов
Расположение каналов : Front: L C R, Side: L R, LFE
Частота : 48,0 КГц
Битовая глубина : 16 бит
Метод сжатия : С потерями
Размер потока : 292 Мбайт (6%)
Заголовок : AC3.384Kbps (6ch) Russian (A.Белоконь)
Язык : Russian
Default : Нет
Forced : Нет

Аудио #3
Идентификатор : 4
Формат : AC-3
Формат/Информация : Audio Coding 3
Расширение режима : CM (complete main)
Параметр Endianness формата : Big
Идентификатор кодека : A_AC3
Продолжительность : 1 ч. 46 м.
Вид битрейта : Постоянный
Битрейт : 192 Кбит/сек
Каналы : 2 канала
Расположение каналов : Front: L R
Частота : 48,0 КГц
Битовая глубина : 16 бит
Метод сжатия : С потерями
Размер потока : 146 Мбайт (3%)
Заголовок : AC3.192.Kbps (2ch) Russian (den904)
Язык : Russian
Default : Нет
Forced : Нет

Аудио #4
Идентификатор : 5
Формат : AC-3
Формат/Информация : Audio Coding 3
Расширение режима : CM (complete main)
Параметр Endianness формата : Big
Идентификатор кодека : A_AC3
Продолжительность : 1 ч. 46 м.
Вид битрейта : Постоянный
Битрейт : 640 Кбит/сек
Каналы : 6 каналов
Расположение каналов : Front: L C R, Side: L R, LFE
Частота : 48,0 КГц
Битовая глубина : 16 бит
Метод сжатия : С потерями
Размер потока : 486 Мбайт (10%)
Заголовок : AC3.640.Kbps (6ch) English
Язык : English
Default : Нет
Forced : Нет

Текст #1
Идентификатор : 6
Формат : UTF-8
Идентификатор кодека : S_TEXT/UTF8
Идентификатор кодека/Информация : UTF-8 Plain Text
Заголовок : English (Full)
Язык : English
Default : Нет
Forced : Нет

Текст #2
Идентификатор : 7
Формат : UTF-8
Идентификатор кодека : S_TEXT/UTF8
Идентификатор кодека/Информация : UTF-8 Plain Text
Заголовок : English (SDH)
Язык : English
Default : Нет
Forced : Нет

Текст #3
Идентификатор : 8
Формат : UTF-8
Идентификатор кодека : S_TEXT/UTF8
Идентификатор кодека/Информация : UTF-8 Plain Text
Заголовок : English (SDH-Colored)
Язык : English
Default : Да
Forced : Нет

Текст #4
Идентификатор : 9
Формат : UTF-8
Идентификатор кодека : S_TEXT/UTF8
Идентификатор кодека/Информация : UTF-8 Plain Text
Заголовок : Spanish (Full)
Язык : Spanish
Default : Нет
Forced : Нет

Меню
00:00:00.000 : en:00:00:00.000
00:07:11.056 : en:00:07:11.056
00:15:08.491 : en:00:15:08.491
00:24:16.455 : en:00:24:16.455
00:36:33.108 : en:00:36:33.108
00:46:44.844 : en:00:46:44.844
00:59:19.306 : en:00:59:19.306
01:11:52.683 : en:01:11:52.683
01:17:31.981 : en:01:17:31.981
01:23:12.112 : en:01:23:12.112
01:29:12.430 : en:01:29:12.430
01:42:08.205 : en:01:42:08.205


pic


Информация
Информация Скриншоты Пиры Скачавшие Список файлов
Залил Оценка Просмотров Скачан Файлов
megaseed +3 792881

Теги
ужасы, драма, криминал

Похожие раздачи

Я плюю на ваши могилы 3 / I Spit on Your Grave 3 (2015) BDRip-AVC | iTunes 2.13 GB

Я плюю на ваши могилы 2 / I Spit On Your Grave 2 (2013) DVD9 | P | Лицензия 7.05 GB

Я плюю на ваши могилы 2 / I Spit On Your Grave 2 (UNRATED) (2013) [Ужасы, триллер, криминал] BDRip-AVC | Dub {чистый звук} + En 1.79 GB

Больше похожих раздач →

Список комментариев
Комментарии отсутствуют

Добавить комментарий
Внимание
Гости не могут оставлять комментарии, авторизуйтесь.

Панель навигации

ПОПУЛЯРНЫЕ РАЗДАЧИ
скачать торрент Ледокол (2016) WEB-DLRip | iTunesскачать торрент Доктор Стрэндж (2016) TS
скачать торрент Ледокол (2016) WEB-DL 1080p | iTunesскачать торрент Дуэлянт (2016) CAMRip
скачать торрент Отряд самоубийц (2016) BDRip 1080p | Расширeнная версия | iTunesскачать торрент Джейсон Борн (2016) HDTV 720p | Чистый звук
скачать торрент Первый мститель: Противостояние (2016) BDRip | IMAX Edition | iTunesскачать торрент Тарзан. Легенда (2016) HDRip | iTunes
скачать торрент Dark Souls 3: Deluxe Edition (2016) PC | RePack от xatabскачать торрент Люди Икс: Апокалипсис / X-Men: Apocalypse (2016) BDRip 720p | Лицензия

Будь с нами!


Наши друзья 



Информация, расположенная на данном сервере, предназначена исключительно для частного использования и не может быть загружена/перенесена на другой компьютер. Ни владелец сайта, ни хостинг-провайдер, ни любые другие физические или юридические лица не могут нести никакой отвественностиза любое использование материалов данного сайта.

© 2012-2016 TRACK.KG.