Загрузить Adobe Flash Player
Как тут качать? :: Как встать на раздачу?

Скачать / Download torrent  
Хэш: 68602a0e521f90c6ff1d52ea282569b0f577356b
Добавлен: 25 июля 2013 в 15:57:34
Категория: Фильмы » Фильмы HD / BD
Размер: 6.93 GB
Проверил: Ixxx 25 июля 2013 в 15:57:34

Раздают: 57 Качают: 15

Halo 4: Идущий к рассвету / Halo 4: Forward Unto Dawn (2012) [Фантастика] BDRip 1080p | Лицензия

Halo 4: Идущий к рассвету / Halo 4: Forward Unto Dawn

Год выхода: 2012
Страна: США
Жанр: Фантастика
Перевод: Профессиональный (многоголосый) [Лицензия]
Субтитры: Pусскиe, английскиe

Режиссер Стюарт Хендлер

В ролях Айэйн Белчер, Дженна Берман, Эниша Брюстер, Дэниэл Кадмор, Майк Допуд, Анна Попплуэлл

Описание: Эта история возвращает игроков к началу войны между людьми и Ковенантами и подводит к событиям, происходящим в игре Halo 4. В стенах военной академии Космического Командования Объединённых Наций (UNSC) группу курсантов знатного происхождения готовят стать следующим поколением солдат в надвигающейся войне между UNCS и повстанцами на колониальных планетах. Один из кадетов, Томас Ласки, ведет внутреннюю борьбу, преодолевая сомнения по поводу войны и опасения не оправдать высоких ожиданий командования. К тому моменту, как Ласки смирился со своей ролью будущего командира, ужасающее войско альянса Ковенант вторгается на планету и переворачивает привычный мир героя с ног на голову. Вдохновлённый подвигами Мастера Чифа, Ласки должен на собственном опыте узнать, что значит быть героем.

pic pic pic

Качество: BDRip 1080p
Формат: MKV
Продолжительность: 01:31:23
Видео: H264 ~ 8706 kbps, 1920x798
Аудио: АС3, 6 ch, 448 kbps

Примечание: В начале отсутствует около 5 минут перевода!

Общее
Полное имя : Halo.4.Idushii.k.rassvetu.2012.P.BDRip.1080p.mkv
Формат : Matroska
Версия формата : Version 4 / Version 2
Размер файла : 6,93 Гбайт
Продолжительность : 1 ч. 35 м.
Общий поток : 10,4 Мбит/сек
Дата кодирования : UTC 2013-07-25 08:13:14
Программа кодирования : mkvmerge v6.1.0 ('Old Devil') built on Mar 2 2013 14:32:37
Библиотека кодирования : libebml v1.3.0 + libmatroska v1.4.0

Видео
Идентификатор : 1
Формат : AVC
Формат/Информация : Advanced Video Codec
Профиль формата : High@L4.1
Параметр CABAC формата : Да
Параметр ReFrames формата : 5 кадров
Идентификатор кодека : V_MPEG4/ISO/AVC
Продолжительность : 1 ч. 35 м.
Битрейт : 8029 Кбит/сек
Номинальный битрейт : 8706 Кбит/сек
Ширина : 1920 пикселей
Высота : 798 пикселей
Соотношение сторон : 2,40:1
Режим частоты кадров : Постоянный
Частота кадров : 23,976 кадра/сек
Цветовое пространство : YUV
Субдискретизация насыщенности : 4:2:0
Битовая глубина : 8 бит
Тип развёртки : Прогрессивная
Бит/(Пиксели*Кадры) : 0.219
Размер потока : 5,36 Гбайт (77%)
Заголовок : Halo.4.Forward.Unto.Dawn.2012
Библиотека кодирования : x264 core 125 r2208 d9d2288
Настройки программы : cabac=1 / ref=5 / deblock=1:-3:-3 / analyse=0x3:0x113 / me=umh / subme=10 / psy=1 / psy_rd=1.00:0.05 / mixed_ref=1 / me_range=32 / chroma_me=1 / trellis=2 / 8x8dct=1 / cqm=0 / deadzone=21,11 / fast_pskip=0 / chroma_qp_offset=-2 / threads=8 / lookahead_threads=1 / sliced_threads=0 / nr=0 / decimate=1 / interlaced=0 / bluray_compat=0 / constrained_intra=0 / bframes=5 / b_pyramid=2 / b_adapt=2 / b_bias=0 / direct=3 / weightb=1 / open_gop=0 / weightp=2 / keyint=250 / keyint_min=23 / scenecut=40 / intra_refresh=0 / rc=2pass / mbtree=0 / bitrate=8706 / ratetol=1.0 / qcomp=0.70 / qpmin=0 / qpmax=69 / qpstep=4 / cplxblur=20.0 / qblur=0.5 / ip_ratio=1.40 / pb_ratio=1.30 / aq=2:1.00
Язык : English
Default : Да
Forced : Нет

Аудио #1
Идентификатор : 2
Формат : AC-3
Формат/Информация : Audio Coding 3
Расширение режима : CM (complete main)
Параметр Endianness формата : Big
Идентификатор кодека : A_AC3
Продолжительность : 1 ч. 35 м.
Вид битрейта : Постоянный
Битрейт : 448 Кбит/сек
Каналы : 6 каналов
Расположение каналов : Front: L C R, Side: L R, LFE
Частота : 48,0 КГц
Битовая глубина : 16 бит
Метод сжатия : С потерями
Размер потока : 306 Мбайт (4%)
Заголовок : MVO
Язык : Russian
Default : Да
Forced : Нет

Аудио #2
Идентификатор : 3
Формат : AC-3
Формат/Информация : Audio Coding 3
Расширение режима : CM (complete main)
Параметр Endianness формата : Big
Идентификатор кодека : A_AC3
Продолжительность : 1 ч. 35 м.
Вид битрейта : Постоянный
Битрейт : 192 Кбит/сек
Каналы : 2 канала
Расположение каналов : Front: L R
Частота : 48,0 КГц
Битовая глубина : 16 бит
Метод сжатия : С потерями
Размер потока : 131 Мбайт (2%)
Заголовок : DVO
Язык : Russian
Default : Нет
Forced : Нет

Аудио #3
Идентификатор : 4
Формат : DTS
Формат/Информация : Digital Theater Systems
Режим : 16
Параметр Endianness формата : Big
Идентификатор кодека : A_DTS
Продолжительность : 1 ч. 35 м.
Вид битрейта : Постоянный
Битрейт : 1509 Кбит/сек
Каналы : 6 каналов
Расположение каналов : Front: L C R, Side: L R, LFE
Частота : 48,0 КГц
Битовая глубина : 24 бит
Метод сжатия : С потерями
Размер потока : 1,01 Гбайт (15%)
Заголовок : DTS-CORE 1536K
Язык : English
Default : Нет
Forced : Нет

Текст #1
Идентификатор : 5
Формат : UTF-8
Идентификатор кодека : S_TEXT/UTF8
Идентификатор кодека/Информация : UTF-8 Plain Text
Язык : Russian
Default : Нет
Forced : Нет

Текст #2
Идентификатор : 6
Формат : UTF-8
Идентификатор кодека : S_TEXT/UTF8
Идентификатор кодека/Информация : UTF-8 Plain Text
Язык : English
Default : Нет
Forced : Нет

Меню
00:00:00.000 : en:00:00:00.000
00:04:14.546 : en:00:04:14.546
00:07:44.464 : en:00:07:44.464
00:08:31.928 : en:00:08:31.928
00:12:39.968 : en:00:12:39.968
00:16:24.692 : en:00:16:24.692
00:20:13.212 : en:00:20:13.212
00:25:52.968 : en:00:25:52.968
00:28:22.200 : en:00:28:22.200
00:31:57.207 : en:00:31:57.207
00:36:17.842 : en:00:36:17.842
00:40:53.868 : en:00:40:53.868
00:44:32.461 : en:00:44:32.461
00:46:29.495 : en:00:46:29.495
00:49:45.441 : en:00:49:45.441
00:53:58.402 : en:00:53:58.402
00:57:03.086 : en:00:57:03.086
01:03:23.133 : en:01:03:23.133
01:08:56.257 : en:01:08:56.257
01:12:07.156 : en:01:12:07.156
01:18:15.357 : en:01:18:15.357
01:24:02.079 : en:01:24:02.079


Релиз группа:



Информация
Информация Скриншоты Пиры Скачавшие Список файлов
Залил Оценка Просмотров Скачан Файлов
Ixxx +3 714631

Теги
фантастика

Похожие раздачи

Halo: Сумерки / Halo: Nightfall (2014) BDRip 720p | P 4.50 GB

Halo: Сумерки / Хэйло: Затмение / Halo: Nightfall (1 сезон: 1-5 серии из 5) (2014) WEB-DL 1080p | AlexFilm 4.58 GB

Halo: Сумерки / Хэйло: Затмение / Halo: Nightfall (1 сезон: 1-5 серии из 5) (2014) WEBRip 720p | NewStudio 1.88 GB

Halo: Сумерки / Хэйло: Затмение / Halo: Nightfall (1 сезон: 1-5 серии из 5) (2014) WEBRip | NewStudio 975.72 MB

Halo 4: Идущий к рассвету / Halo 4: Forward Unto Dawn (2012) [Фантастика, Боевик, Триллер] BDRip-AVC | MVO + Sub {Rus, Eng} 1.46 GB

Halo 4: Идущий к рассвету / Halo 4: Forward Unto Dawn (2012) [Фантастика] BDRip | Лицензия 1.46 GB

The Halo Method - Reset [EP] (2013) [Alt. Rock, Electronic] MP3@160 kbps 21.69 MB

Больше похожих раздач →

Список комментариев
Комментарии отсутствуют

Добавить комментарий
Внимание
Гости не могут оставлять комментарии, авторизуйтесь.

Панель навигации

ПОПУЛЯРНЫЕ РАЗДАЧИ
скачать торрент Ледокол (2016) WEB-DLRip | iTunesскачать торрент Доктор Стрэндж (2016) TS
скачать торрент Ледокол (2016) WEB-DL 1080p | iTunesскачать торрент Дуэлянт (2016) CAMRip
скачать торрент Отряд самоубийц (2016) BDRip 1080p | Расширeнная версия | iTunesскачать торрент Джейсон Борн (2016) HDTV 720p | Чистый звук
скачать торрент Первый мститель: Противостояние (2016) BDRip | IMAX Edition | iTunesскачать торрент Тарзан. Легенда (2016) HDRip | iTunes
скачать торрент Dark Souls 3: Deluxe Edition (2016) PC | RePack от xatabскачать торрент Люди Икс: Апокалипсис / X-Men: Apocalypse (2016) BDRip 720p | Лицензия

Будь с нами!


Наши друзья 



Информация, расположенная на данном сервере, предназначена исключительно для частного использования и не может быть загружена/перенесена на другой компьютер. Ни владелец сайта, ни хостинг-провайдер, ни любые другие физические или юридические лица не могут нести никакой отвественностиза любое использование материалов данного сайта.

© 2012-2016 TRACK.KG.