Загрузить Adobe Flash Player
Как тут качать? :: Как встать на раздачу?

Скачать / Download torrent  
Хэш: 0a53b0f62f297f573b6d7f4e570c9ae43fb32ebe
Добавлен: 18 июня 2013 в 21:43:19
Категория: Музыка » Клипы
Размер: 130.70 MB
Проверил: Exclusive 18 июня 2013 в 21:43:19

Раздают: 57 Качают: 15

Нюша - Наедине (2013) [Pop, Dance] HDTV

Год выпуска: 2013
Страна: Россия
Жанр: Pop, Dance
Продолжительность: 00:03:55

Качество: HDTV


Format : MPEG-4
Format profile : Base Media / Version 2
Codec ID : mp42
File size : 131 MiB
Duration : 3mn 55s
Overall bit rate mode : Variable
Overall bit rate : 4 662 Kbps
Encoded date : UTC 2013-05-08 00:32:09
Tagged date : UTC 2013-05-08 00:32:09

Video
ID : 1
Format : AVC
Format/Info : Advanced Video Codec
Format profile : High@L4.0
Format settings, CABAC : Yes
Format settings, ReFrames : 1 frame
Codec ID : avc1
Codec ID/Info : Advanced Video Coding
Duration : 3mn 55s
Bit rate : 4 468 Kbps
Maximum bit rate : 9 791 Kbps
Width : 1 920 pixels
Height : 1 080 pixels
Display aspect ratio : 16:9
Frame rate mode : Constant
Frame rate : 25.000 fps
Color space : YUV
Chroma subsampling : 4:2:0
Bit depth : 8 bits
Scan type : Progressive
Bits/(Pixel*Frame) : 0.086
Stream size : 125 MiB (96%)
Tagged date : UTC 2013-05-08 00:32:17

Audio
ID : 2
Format : AAC
Format/Info : Advanced Audio Codec
Format profile : LC
Codec ID : 40
Duration : 3mn 55s
Bit rate mode : Variable
Bit rate : 192 Kbps
Maximum bit rate : 202 Kbps
Channel(s) : 2 channels
Channel positions : Front: L R
Sampling rate : 44.1 KHz
Compression mode : Lossy
Stream size : 5.38 MiB (4%)
Title : IsoMedia File Produced by Google, 5-11-2011
Encoded date : UTC 2013-05-08 00:32:15
Tagged date : UTC 2013-05-08 00:32:17


Релиз группа:



Информация
Информация Скриншоты Пиры Скачавшие Список файлов
Залил Оценка Просмотров Скачан Файлов
Exclusive -1 11722151

Теги
pop, dance

Похожие раздачи

Нюша - Воспоминание (2012) |Pop| MP3@320 kbps 213.09 MB

Больше похожих раздач →

Список комментариев
Комментарии отсутствуют

Добавить комментарий
Внимание
Гости не могут оставлять комментарии, авторизуйтесь.

Панель навигации

ПОПУЛЯРНЫЕ РАЗДАЧИ
скачать торрент Ледокол (2016) WEB-DLRip | iTunesскачать торрент Доктор Стрэндж (2016) TS
скачать торрент Ледокол (2016) WEB-DL 1080p | iTunesскачать торрент Дуэлянт (2016) CAMRip
скачать торрент Отряд самоубийц (2016) BDRip 1080p | Расширeнная версия | iTunesскачать торрент Джейсон Борн (2016) HDTV 720p | Чистый звук
скачать торрент Первый мститель: Противостояние (2016) BDRip | IMAX Edition | iTunesскачать торрент Тарзан. Легенда (2016) HDRip | iTunes
скачать торрент Dark Souls 3: Deluxe Edition (2016) PC | RePack от xatabскачать торрент Люди Икс: Апокалипсис / X-Men: Apocalypse (2016) BDRip 720p | Лицензия

Будь с нами!


Наши друзья 



Информация, расположенная на данном сервере, предназначена исключительно для частного использования и не может быть загружена/перенесена на другой компьютер. Ни владелец сайта, ни хостинг-провайдер, ни любые другие физические или юридические лица не могут нести никакой отвественностиза любое использование материалов данного сайта.

© 2012-2016 TRACK.KG.